1 сезон

3 сезон

iTunes

1

iTunes

MVO

iTunes

13

1 сезон

RePack

30

Deluxe

pack

Лицензия

ВАЖНО

ИГРА 18+

pack

RePack

MK11

RePack

jed

RePack

fifa19

RePack

RDR2

RePack

NEED FOR SPEED™ PAYBACK

4 сезон

9 сезон

Бесстыжие 9 сезон

Все сериалы

все сериалы на PB.wtf

RePack

FAR CRY 5

Anonymous, добрый вечер, мы катастрофически не успеваем собрать деньги на оплату серверов, помогите нам пожалуйста 5,10,15р., для нас важна любая помощь . В качестве благодарности мы отключим Вам всю рекламу на сайте (укажите свой ник в строку Ваше имя)!

×
  
Magnet ссылка

Что скрывает ложь / Trespass (Джоэл Шумахер / Joel Schumacher) [2011, триллер, драма, криминал, DVD9] R5 pb.wtf

Что скрывает ложь через торрент pb.wtf

Размер: 5.23 GB | Добавлен: 9 лет 6 мес. назад | Торрент скачан:84 раза
Скачать  

18-01-2012 19:44 Что скрывает ложь Скачать торрент  


Что скрывает ложь / Trespass
«When terror is at your door, you can run, or you can fight.»
Страна: США
Студия: Millennium Films, Nu-Image Films, Winkler Films
Жанр: триллер, драма, криминал
Год выпуска: 2011
Мировая премьера: 14 сентября 2011
Российская премьера: 8 декабря 2011, «UPI»
Дата выхода DVD: 19 января 2012
Продолжительность: 01:26:55
Перевод: Профессиональный (дублированный) [Лицензия]
Cубтитры: нет
Режиссер: Джоэл Шумахер / Joel Schumacher
В ролях: Николас Кейдж, Николь Кидман, Бен Мендельсон, Лиана Либерато, Кэм Жиганде, Джордана Спиро, Дэш Майок, Эмили Миде, Нико Торторелла, Брэндон Белнап
Описание: Идеальная семейная пара: успешный бизнесмен, торгующий бриллиантами, и его очаровательная жена-дизайнер. Но когда в их роскошный дом придут незваные гости и нависнет смертельная угроза, наружу вылезут измена и ложь.
Бонусы: Смотрите на DVD

Качество: DVD9 R5
Формат: DVD-Video
Видео кодек: MPEG2
Аудио кодек: AC3
Видео: PAL 16:9 (720x576(0.699)) MPEG Video, 25,000 кадр/сек, 7246 Кбит/сек
Аудио: Russian (Dolby AC3, 2 ch) 320 Кбит/сек, 48,0 КГц



Title: Рабочий
Size: 5.23 Gb ( 5 480 902 KBytes ) - DVD-9
Enabled regions: 1, 2, 3, 4, 5, 6, 7, 8

VTS_01 :
Play Length: 01:26:55
Video: PAL 16:9 (720x576) VBR, Auto Letterboxed
Audio:
Russian (Dolby AC3, 2 ch)

VTS_02 :
Play Length: 00:00:14+00:00:09
Video: PAL 16:9 (720x576) VBR, Auto Letterboxed
Audio:
Russian (Dolby AC3, 6 ch)

VTS_03 :
Play Length: 00:01:54+00:02:33+00:02:08+00:01:40+00:01:48
Video: PAL 16:9 (720x576) VBR, Auto Letterboxed
Audio:
Russian (Dolby AC3, 2 ch)

Menu Video:
PAL 16:9 (720x576) VBR
Auto Letterboxed
Menu Audio:
Not specified (Dolby AC3, 2 ch)
Menu Subtitles:
Not specified
Menu English Language Unit :
Root Menu
Общее
Полное имя : G:\Новинки 2011\Chto,skryvaet.lozh'.2011.DVD9\VIDEO_TS\VTS_01_2.VOB
Формат : MPEG-PS
Размер файла : 1000 Мбайт
Продолжительность : 18 м.
Общий поток : 7720 Кбит/сек

Видео
Идентификатор : 224 (0xE0)
Формат : MPEG Video
Версия формата : Version 2
Профиль формата : Main@Main
Параметр BVOP формата : Да
Параметр матрицы формата : Выборочная
Продолжительность : 18 м.
Вид битрейта : Переменный
Битрейт : 7246 Кбит/сек
Максимальный битрейт : 9200 Кбит/сек
Ширина : 720 пикселей
Высота : 576 пикселей
Соотношение сторон : 16:9
Частота кадров : 25,000 кадров/сек
Стандарт вещания : PAL
Цветовое пространство : YUV
Субдискретизация насыщенности : 4:2:0
Битовая глубина : 8 бит
Тип развёртки : Чересстрочная
Порядок развёртки : Верхнее поле первое
Метод сжатия : С потерями
Бит/(Пиксели*Кадры) : 0.699
Размер потока : 938 Мбайт (94%)

Аудио
Идентификатор : 189 (0xBD)-128 (0x80)
Формат : AC-3
Формат/Информация : Audio Coding 3
Расширение режима : CM (complete main)
Режим смешивания : DVD-Video
Продолжительность : 18 м.
Вид битрейта : Постоянный
Битрейт : 320 Кбит/сек
Каналы : 2 канала
Расположение каналов : Front: L R
Частота : 48,0 КГц
Битовая глубина : 16 бит
Метод сжатия : С потерями
Задержка видео : -216 мс.
Размер потока : 41,4 Мбайт (4%)










pb.wtf



Скачать Что скрывает ложь через торрент http://i3.imageban.ru/out/2012/01/18/583c2f1ab7eda5ab962d714198509ff8.jpg Скачать фильм Что скрывает ложь через торрент бесплантно в хорошем качестве Описание: Идеальная семейная пара: успешный бизнесмен, торгующий бриллиантами, и его очаровательная жена-дизайнер. Но когда в их роскошный ... 5 10 6
Info! Золотая раздача, скачанное не засчитывается.
Торрент: Зарегистрирован [2012-01-18 19:44] · скачан: 84 раз
Статус: √ проверено
Размер: 5.23 GB
Как cкачать? Как скачать Что скрывает ложь через торрент | UTorrent

28-11-2019 20:33  

Отключить всю рекламу на сайте

18-01-2012 20:10 Что скрывает ложь Скачать торрент  

Огромное спасибо за классный фильм и за ЛИЦЕНЗИЮ.pb.wtf



    Дорогой пользователь! Огромная просьба, поблагодарите релизера, оцените раздачу и оставьте свои комментарий, если Вы скачали Что скрывает ложь через торрент бесплатно! Внесите свою лепту в развитие PiratBit!
    Комментировать посты могут только пользователи прошедшие не сложную регистрацию
    Показать сообщения:    

    Что скрывает ложь через торрент
    Скачать бесплатно Что скрывает ложь
    Что скрывает ложь скачать торрент
    Что скрывает ложь смотреть онлайн
    Cкачать фильм Что скрывает ложь бесплатно
    Что скрывает ложь скачать торрент в хорошем качестве
    Что скрывает ложь смотреть онлайн бесплатно в хорошем качестве


    Вы не можете начинать темы
    Вы не можете отвечать на сообщения
    Вы не можете редактировать свои сообщения
    Вы не можете удалять свои сообщения
    Вы не можете голосовать в опросах
    Вы не можете прикреплять файлы к сообщениям
    Вы можете скачивать файлы