новый адрес
Мега распродажа FORZA HORIZON 4 ULTIMATE+ВСЕ DLC+ОНЛАЙН всего за 499р. 349 руб. (супер цена). Внимание количество ограничено!!!

iTunes

1+1

iTunes

мы

iTunes

1

iTunes

Чернобыль

iTunes

Ральф против интернета

Лицензия

ПШазам

Лицензия

Оно 2

Лицензия

30
pack

ВАЖНО

!!Акция!!

Alien_RageХит недели

RePack

Resident Evil 21

ИГРА 18+

pack

RePack

Metro:Exodus

!!Акция!!

Alien_Rage

RePack

fifa19

RePack

Assassins Creed: Odyssey

RePack

NEED FOR SPEED™ PAYBACK

3 сезон

9 сезон

Бесстыжие 9 сезон

Все сериалы

все сериалы на PB.wtf

RePack

FAR CRY 5
Ребята, катастрофически не хватает 1900р. для оплаты серверов за Октябрь (всвязи с блокировками трафик упал в 3 раза), 1-2р., выручайте.
  

Неисправимый лгун (Виллен Азаров) [1973 г., Комедия, DVDRip-AVC] pb.wtf

Неисправимый лгун через торрент pb.wtf

Размер: 1.09 GB | Добавлен: 7 лет 10 мес. назад | Торрент скачан:97 раз
Скачать  

19-01-2012 12:23 Неисправимый лгун Скачать торрент  

Неисправимый лгун
Год выпуска: 1973
Страна: СССР
Жанр: Комедия
Продолжительность: 1:11:18
Перевод: Не требуется

Режиссер: Виллен Азаров
Сценарий: Яков Костюковский, Морис Слободской




В ролях: Георгий Вицин, Инна Макарова, Николай Прокопович, Владимир Этуш, Эдита Пьеха, Борис Сичкин, Эммануил Геллер, Николай Парфенов, Иван Рыжов, Лариса Барабанова, Валентина Березуцкая, Юрий Цоглин, Валентина Хмара

Описание: Алексей Тютюрин (Вицин) работет парикмахером уже много лет, но его никак не хотят назначить старшим мастером — он вечно опаздывает на работу, а причины опозданий всегда настолько неправдоподобны, что начальник советует ему сначала научиться врать, а потом уже делать это. То Алексей ловит "убежавший" у мальчика мячик в потоке автомобилей, и его обдает водой поливальная машина, то еще что-нибудь. А один раз он вообще золотой портсигар с драгоценными камнями, принадлежащими эмиру (Этуш). Как честный советский человек, он возвращает портсигар Его высочеству, и тот приглашает Алексея на обед. Опять пришлось задержаться с обеденного перерыва. Бывает, что его сбивает проезжающая по дороге на работу сама Эдита Пьеха, а он ее, бесчувственную, относит к себе домой. Естественно, начальник не верит, что он попал под машину, а на диване у него лежит Эдита Пьеха... Справок о случившемся никто не дает. Так повысят Алексея по службе или нет? Легкая, развлекательная комедия с музыкальными вставками, песнями и даже танцами. Более всего привлекает игра Вицина и взаимоотношения героя с женой Зиночкой (Инна Макарова), следящей за тем, чтобы муж бросил курить.


Качество: DVDRip-AVC
Формат: MKV
Видео кодек: H.26x
Аудио кодек: AC3
Видео: 704x432 (16/9), 25,000 fps, ~2000 kbps, 0,26 bit/pix
Аудио: 48 kHz, AC3 2.0 ch, ~192.00 kbps avg
Общее
Полное имя : Советские фильмы\Неисправимый лгун(+).mkv
Формат : Matroska
Версия формата : Version 2
Размер файла : 1,09 Гбайт
Продолжительность : 1 ч. 11 м.
Общий поток : 2195 Кбит/сек
Название фильма : Неисправимый лгун
Дата кодирования : UTC 2010-06-20 19:07:59
Программа кодирования : mkvmerge v3.0.0 ('Hang up your Hang-Ups') built on Dec 12 2009 15:20:35
Библиотека кодирования : libebml v0.7.9 + libmatroska v0.8.1

Видео
Идентификатор : 1
Формат : AVC
Формат/Информация : Advanced Video Codec
Профиль формата : High@L3.0
Параметр CABAC формата : Да
Параметр ReFrames формата : 6 кадров
Идентификатор кодека : V_MPEG4/ISO/AVC
Продолжительность : 1 ч. 11 м.
Битрейт : 2001 Кбит/сек
Ширина : 704 пикселя
Высота : 432 пикселя
Соотношение сторон : 16:9
Соотношение сторон в оригинале : 16:9
Частота кадров : 25,000 кадров/сек
Цветовое пространство : YUV
Субдискретизация насыщенности : 4:2:0
Битовая глубина : 8 бит
Тип развёртки : Прогрессивная
Бит/(Пиксели*Кадры) : 0.263
Размер потока : 999 Мбайт (89%)
Библиотека кодирования : x264 core 79
Настройки программы : cabac=1 / ref=6 / deblock=1:-3:-2 / analyse=0x3:0x113 / me=umh / subme=9 / psy=1 / psy_rd=1.0:0.0 / mixed_ref=1 / me_range=32 / chroma_me=1 / trellis=2 / 8x8dct=1 / cqm=0 / deadzone=21,11 / chroma_qp_offset=-2 / threads=1 / nr=0 / decimate=1 / mbaff=0 / constrained_intra=0 / bframes=6 / b_pyramid=0 / b_adapt=2 / b_bias=0 / direct=1 / wpredb=1 / wpredp=2 / keyint=250 / keyint_min=25 / scenecut=40 / rc_lookahead=50 / rc=2pass / mbtree=1 / bitrate=2001 / ratetol=1.0 / qcomp=0.60 / qpmin=10 / qpmax=51 / qpstep=4 / cplxblur=20.0 / qblur=0.5 / ip_ratio=1.40 / aq=1:1.00
Язык : Russian
Default : Да
Forced : Нет
Основные цвета : BT.601-6 525, BT.1358 525, BT.1700 NTSC, SMPTE 170M
Характеристики трансфера : BT.709-5, BT.1361
Коэффициенты матрицы : BT.601-6 525, BT.1358 525, BT.1700 NTSC, SMPTE 170M

Аудио
Идентификатор : 2
Формат : AC-3
Формат/Информация : Audio Coding 3
Расширение режима : CM (complete main)
Идентификатор кодека : A_AC3
Продолжительность : 1 ч. 11 м.
Вид битрейта : Постоянный
Битрейт : 192 Кбит/сек
Каналы : 2 канала
Расположение каналов : Front: L R
Частота : 48,0 КГц
Битовая глубина : 16 бит
Метод сжатия : С потерями
Размер потока : 97,9 Мбайт (9%)
Заголовок : Оригинальный
Язык : Russian
Default : Да
Forced : Нет
pb.wtf



Скачать Неисправимый лгун через торрент http://pic.kartinco.top/images/2011/vut5443pyp.jpg Скачать фильм Неисправимый лгун через торрент бесплантно в хорошем качестве Описание: Алексей Тютюрин (Вицин) работет парикмахером уже много лет, но его никак не хотят назначить старшим мастером — он вечно ... 10 10 3
Info! Золотая раздача, скачанное не засчитывается.
Торрент: Зарегистрирован [2012-01-19 12:23] · скачан: 97 раз
Статус: √ проверено
Размер: 1.09 GB
Как cкачать? Как скачать Неисправимый лгун через торрент | qTorrent


>> Регистрируемся здесь <<






Отзывы и комментарии о схеме читаем и пишем здесь: ---> Отзывы и комментарии о схеме

Новые благодарочки в телеграм довольных пользователей:
скриншот   скриншот   скриншот   скриншот   скриншот
    Дорогой пользователь! Огромная просьба, поблагодарите релизера, оцените раздачу и оставьте свои комментарий, если Вы скачали Неисправимый лгун через торрент бесплатно! Внесите свою лепту в развитие PiratBit!
    Комментировать посты могут только пользователи прошедшие не сложную регистрацию
    Показать сообщения:    

    Неисправимый лгун через торрент
    Скачать бесплатно Неисправимый лгун
    Неисправимый лгун скачать торрент
    Неисправимый лгун смотреть онлайн
    Cкачать фильм Неисправимый лгун бесплатно
    Неисправимый лгун скачать торрент в хорошем качестве
    Неисправимый лгун смотреть онлайн бесплатно в хорошем качестве


    Вы не можете начинать темы
    Вы не можете отвечать на сообщения
    Вы не можете редактировать свои сообщения
    Вы не можете удалять свои сообщения
    Вы не можете голосовать в опросах
    Вы не можете прикреплять файлы к сообщениям
    Вы можете скачивать файлы