Ссылка на приватное зеркало всего за 1$. Внимание количество ограничено!!!

OK

1+1

iTunes

мы

OK

1

WEB-DLRip

Джокер

Пифагор

Ведьмак / The Witcher сериал

Лицензия

ПШазам

ОК

Оно 2

iTunes

30
pack

Вам бонус

ВАЖНО

!!Акция!!

Alien_RageХит недели

RePack

Resident Evil 21

ИГРА 18+

pack

RePack

jed

!!Акция!!

Alien_Rage

RePack

fifa19

RePack

Assassins Creed: Odyssey

RePack

NEED FOR SPEED™ PAYBACK

4 сезон

9 сезон

Бесстыжие 9 сезон

Все сериалы

все сериалы на PB.wtf

RePack

FAR CRY 5
  

Короткое замыкание: Дилогия / Short Circuit: Dilogy (Джон Бэдэм, Кеннет Джонсон) [1986, 1988 г.г. ,фантастика, комедия, семейный, BDRip] pb.wtf

Короткое замыкание: Дилогия через торрент pb.wtf

Размер: 3.64 GB | Добавлен: 7 лет 11 мес. назад | Торрент скачан:270 раз
Скачать  

19-01-2012 18:57 Короткое замыкание: Дилогия Скачать торрент  

Короткое замыкание: Дилогия / Short Circuit: Dilogy

Короткое замыкание/Short Circuit
Страна: США
Режиссер: Джон Бэдэм
Продюсер: Грегг Чемпион, Марк Дэймон
Сценарий: Брент Мэддок, С.С. Уилсон
Жанр: фантастика, комедия, семейный
Продолжительность: 01:38:34
Год выпуска: 1986
Перевод: Профессиональный (многоголосый, закадровый) [Инис, по заказу "Централ Партнершип"]
В ролях: Элли Шиди, Стив Гуттенберг, Фишер Стивенс, Остин Пендлтон, Г.В. Бэйли, Брайан МакНамара, Tim Blaney, Марвин Дж. Макинтайр, Джон Гарбер, Пенни Сантон, Vernon Weddle, Барбара Тарбак, Том Лоуренс
Описание: Разряд молнии попадает в робота под номером 5, и он оживает наподобие создания Франкенштейна. Вся штука в том, что его создатель и те, кто замыслил использовать робота в военных целях, не подозревали даже, какой могучий заряд человеколюбия и добра заложен в этой, казалось бы, безмозглой и бессердечной железяки.
«Короткое замыкание» часто называют очень недооценённым фильмом, имея в виду отсутствие серьёзных призов, но среди зрителей этот фильм всегда пользовался популярностью.

Качество: BDRip
Формат: AVI
Видео кодек: XviD, build 63 codec
Аудио кодек: AC3
Видео: 720x304 (2.37:1), 23.976 fps, XviD build 46 ~1723 kbps avg, 0.33 bit/pixel
Аудио: 48 kHz, AC3 Dolby Digital, 3/2 (L,C,R,l,r) + LFE ch, ~384 kbps
Общее
Полное имя : Фильмы\Короткое замыкание\Короткое замыкание(+).avi
Формат : AVI
Формат/Информация : Audio Video Interleave
Размер файла : 1,46 Гбайт
Продолжительность : 1 ч. 38 м.
Общий поток : 2117 Кбит/сек
Название фильма : Короткое замыкание / Short Circuit (1986)
Программа кодирования : VirtualDubMod 1.5.10.2 (build 2542/release)

Видео
Идентификатор : 0
Формат : MPEG-4 Visual
Профиль формата : Advanced Simple@L5
Параметр BVOP формата : 1
Параметр QPel формата : Нет
Параметр GMC формата : Без точки перехода
Параметр матрицы формата : Default (MPEG)
Идентификатор кодека : XVID
Идентификатор кодека/Подсказка : XviD
Продолжительность : 1 ч. 38 м.
Битрейт : 1724 Кбит/сек
Ширина : 720 пикселей
Высота : 304 пикселя
Соотношение сторон : 2,35:1
Частота кадров : 23,976 кадра/сек
Цветовое пространство : YUV
Субдискретизация насыщенности : 4:2:0
Битовая глубина : 8 бит
Тип развёртки : Прогрессивная
Метод сжатия : С потерями
Бит/(Пиксели*Кадры) : 0.328
Размер потока : 1,19 Гбайт (81%)
Библиотека кодирования : XviD 1.1.2 (UTC 2006-11-01)

Аудио
Идентификатор : 1
Формат : AC-3
Формат/Информация : Audio Coding 3
Расширение режима : CM (complete main)
Идентификатор кодека : 2000
Продолжительность : 1 ч. 38 м.
Вид битрейта : Постоянный
Битрейт : 384 Кбит/сек
Каналы : 6 каналов
Расположение каналов : Front: L C R, Side: L R, LFE
Частота : 48,0 КГц
Битовая глубина : 16 бит
Метод сжатия : С потерями
Размер потока : 271 Мбайт (18%)
Выравнивание : Разделение по промежуткам
Продолжительность промежутка : 42 мс. (1,00 видеокадр)
Время предзагрузки промежутка : 500 мс.
Короткое замыкание - 2/Short Circuit - 2
Страна: США
Режиссер: Кеннет Джонсон
Продюсер: Дэвид Фостер, Гари Фостер
Сценарий: Брент Мэддок, С.С. Уилсон
Жанр: фантастика, комедия, семейный
Продолжительность: 01:50:25
Год выпуска: 1988
Перевод: Профессиональный (полное дублирование) + Авторский одноголосый [Карповский] + Оригинальная звуковая дорожка
В ролях: Тим Блэйни, Фишер Стивенс, Майкл МакКин, Синтия Гибб, Джек Уэстон, Ди МакКафферти, Дэвид Хемблен, Дон Лейк, Дэймон Д’Оливера, Тито Нуньес
Описание:Бен Джарви, по происхождению индиец, а по профессии - изобретатель-конструктор роботов, вынужден работать уличным торговцем. В первом фильме его отстранили от работы после инцидента с созданным им роботом Номер пять.
Теперь Бен оказался на мели, он вынужден жить в фургончике и делать игрушечных роботов для продажи на улице. Эти роботы все, как один, похожи на Номера пять, но только дизайном..... Номер пять обрел личность благодаря короткому замыканию, а эти малыши - всего лишь бездушные игрушки.
Маленькие роботы привлекают внимание сотрудницы известного магазина игрушек и она делает Бену выгодное предложение - к Рождеству он должен собрать тысячу таких роботов и продать магазину оптом.
Предприимчивый американец советует Бену принять выгодное предложение и обещает помочь ему в выполнении заказа. Бен заключает сделку. Вместе со своим компаньоном он арендует рабочий цех и привлекает помощников. Приезжает и Номер пять, чтобы помочь своему создателю и другу Бену.
Бен выбирает неудачное место для работы: этажом ниже находится целая банда преступников. Это грабители банков, они роют подземный ход в хранилище, где содержится коллекция бриллиантов. Появление Бена и его помощников может сорвать подготовку к ограблению, поэтому грабители принимают решение избавиться от нежелательных соседей....

Качество: BDRip
Формат: AVI
Видео кодек: XviD, build 63 codec
Аудио кодек: AC3
Видео: 704x384 (1.83:1), 23.976 fps, XviD build 63 ~2247 kbps avg, 0.35 bit/pixel
Аудио 1 (RUS): 48 kHz, AC3 Dolby Digital, 2/0 (L,R) ch, ~192 kbps
Аудио 2 (RUS): 48 kHz, AC3 Dolby Digital, 2/0 (L,R) ch, ~192 kbps
Аудио 3 (ENG): 48 kHz, AC3 Dolby Digital, 2/0 (L,R) ch, ~192 kbps
Общее
Полное имя : Фильмы\Короткое замыкание\Короткое замыкание - 2(+).avi
Формат : AVI
Формат/Информация : Audio Video Interleave
Профиль формата : OpenDML
Размер файла : 2,18 Гбайт
Продолжительность : 1 ч. 50 м.
Общий поток : 2831 Кбит/сек
Название фильма : Короткое замыкание 2 / Short Circuit 2 (1988) BDRip
Программа кодирования : VirtualDubMod 1.5.10.2 (build 2542/release)

Видео
Идентификатор : 0
Формат : MPEG-4 Visual
Профиль формата : Advanced Simple@L5
Параметр BVOP формата : 1
Параметр QPel формата : Нет
Параметр GMC формата : Без точки перехода
Параметр матрицы формата : Выборочная
Идентификатор кодека : XVID
Идентификатор кодека/Подсказка : XviD
Продолжительность : 1 ч. 50 м.
Битрейт : 2230 Кбит/сек
Ширина : 704 пикселя
Высота : 384 пикселя
Соотношение сторон : 16:9
Частота кадров : 23,976 кадра/сек
Цветовое пространство : YUV
Субдискретизация насыщенности : 4:2:0
Битовая глубина : 8 бит
Тип развёртки : Прогрессивная
Метод сжатия : С потерями
Бит/(Пиксели*Кадры) : 0.344
Размер потока : 1,72 Гбайт (79%)
Библиотека кодирования : XviD 63

Аудио #1
Идентификатор : 1
Формат : AC-3
Формат/Информация : Audio Coding 3
Расширение режима : CM (complete main)
Идентификатор кодека : 2000
Продолжительность : 1 ч. 50 м.
Вид битрейта : Постоянный
Битрейт : 192 Кбит/сек
Каналы : 2 канала
Расположение каналов : Front: L R
Частота : 48,0 КГц
Битовая глубина : 16 бит
Метод сжатия : С потерями
Размер потока : 152 Мбайт (7%)
Выравнивание : Разделение по промежуткам
Продолжительность промежутка : 42 мс. (1,00 видеокадр)
Время предзагрузки промежутка : 500 мс.

Аудио #2
Идентификатор : 2
Формат : AC-3
Формат/Информация : Audio Coding 3
Расширение режима : CM (complete main)
Идентификатор кодека : 2000
Продолжительность : 1 ч. 50 м.
Вид битрейта : Постоянный
Битрейт : 192 Кбит/сек
Каналы : 2 канала
Расположение каналов : Front: L R
Частота : 48,0 КГц
Битовая глубина : 16 бит
Метод сжатия : С потерями
Размер потока : 152 Мбайт (7%)
Выравнивание : Разделение по промежуткам
Продолжительность промежутка : 42 мс. (1,00 видеокадр)
Время предзагрузки промежутка : 500 мс.

Аудио #3
Идентификатор : 3
Формат : AC-3
Формат/Информация : Audio Coding 3
Расширение режима : CM (complete main)
Идентификатор кодека : 2000
Продолжительность : 1 ч. 50 м.
Вид битрейта : Постоянный
Битрейт : 192 Кбит/сек
Каналы : 2 канала
Расположение каналов : Front: L R
Частота : 48,0 КГц
Битовая глубина : 16 бит
Метод сжатия : С потерями
Размер потока : 152 Мбайт (7%)
Выравнивание : Разделение по промежуткам
Продолжительность промежутка : 42 мс. (1,00 видеокадр)
Время предзагрузки промежутка : 500 мс.
pb.wtf



Скачать Короткое замыкание: Дилогия через торрент http://pic.kartinco.top/images/2011/2ie719dii9.jpg Скачать фильм Короткое замыкание: Дилогия через торрент бесплантно в хорошем качестве Описание: Разряд молнии попадает в робота под номером 5, и он оживает наподобие создания Франкенштейна. Вся штука в том, что его создатель ... 9.9 10 9
Info! Золотая раздача, скачанное не засчитывается.
Торрент: Зарегистрирован [2012-01-19 18:57] · скачан: 270 раз
Статус: √ проверено
Размер: 3.64 GB
Как cкачать? Как скачать Короткое замыкание: Дилогия через торрент | qTorrent

% Раздел Тема Автор DL S | L
Сборники и Сиквелы (48-60 fps) [ 6.16 GB ] Короткое замыкание: Дилогия / Short Circuit: Dilogy [1986-1988 BDRip-AVC 60fps Dub] от R.G. HD-Films Tiberiumsun69 Скачать
4 | 0

28-11-2019 20:33  

Отключить всю рекламу на сайте

19-01-2012 19:06 Короткое замыкание: Дилогия Скачать торрент  

О, да! Фильм моей юности :)pb.wtf



19-01-2012 19:25 Короткое замыкание: Дилогия Скачать торрент  

не смотрел, маленький тогда ещё был)))))))pb.wtf



19-01-2012 19:33 Короткое замыкание: Дилогия Скачать торрент  

=) я смотрел первый раз этот фильм в детстве, лет в 6 - 7, это был 1995-1996 годы (хотя может немного и путаю годы), на VHS, даже помню озвучку, кстати, вторую часть смотрел не с дубляжом, а с одноголосым как когда то...pb.wtf



19-01-2012 19:36 Короткое замыкание: Дилогия Скачать торрент  

0xiDESK
ну и как?pb.wtf



19-01-2012 19:50 Короткое замыкание: Дилогия Скачать торрент  

GreyT писал(а):

0xiDESK
ну и как?

Фильм просто супер!!!!!!!pb.wtf



19-01-2012 19:53 Короткое замыкание: Дилогия Скачать торрент  

GreyT
Фильм офигенный!!! Особенно на то время! Если не смотрели - стоит посмотреть))))
ps. после часу по москве раздача будет более быстройpb.wtf



19-01-2012 20:55 Короткое замыкание: Дилогия Скачать торрент  

Так это же папа Wall.epb.wtf



19-01-2012 21:06 Короткое замыкание: Дилогия Скачать торрент  

это дед валли
а по сути вспомнил детство решил скачать спсpb.wtf



19-01-2012 21:13 Короткое замыкание: Дилогия Скачать торрент  

Да,были времена когда-то. Вспомнилась юность и видеомагнитофон Электроника pb.wtf



30-10-2014 06:27 Короткое замыкание: Дилогия Скачать торрент  

Фильм офигенный!!! Cоветую посмотреть.pb.wtf



    Дорогой пользователь! Огромная просьба, поблагодарите релизера, оцените раздачу и оставьте свои комментарий, если Вы скачали Короткое замыкание: Дилогия через торрент бесплатно! Внесите свою лепту в развитие PiratBit!
    Комментировать посты могут только пользователи прошедшие не сложную регистрацию
    Показать сообщения:    

    Короткое замыкание: Дилогия через торрент
    Скачать бесплатно Короткое замыкание: Дилогия
    Короткое замыкание: Дилогия скачать торрент
    Короткое замыкание: Дилогия смотреть онлайн
    Cкачать фильм Короткое замыкание: Дилогия бесплатно
    Короткое замыкание: Дилогия скачать торрент в хорошем качестве
    Короткое замыкание: Дилогия смотреть онлайн бесплатно в хорошем качестве


    Вы не можете начинать темы
    Вы не можете отвечать на сообщения
    Вы не можете редактировать свои сообщения
    Вы не можете удалять свои сообщения
    Вы не можете голосовать в опросах
    Вы не можете прикреплять файлы к сообщениям
    Вы можете скачивать файлы