1 сезон

3 сезон

iTunes

1

iTunes

MVO

iTunes

13

1 сезон

RePack

30

Deluxe

pack

Лицензия

ВАЖНО

ИГРА 18+

pack

RePack

MK11

RePack

jed

RePack

fifa19

RePack

RDR2

RePack

NEED FOR SPEED™ PAYBACK

4 сезон

9 сезон

Бесстыжие 9 сезон

Все сериалы

все сериалы на PB.wtf

RePack

FAR CRY 5

Anonymous, доброе утро, мы катастрофически не успеваем собрать деньги на оплату серверов, помогите нам пожалуйста 5,10,15р., для нас важна любая помощь . В качестве благодарности мы отключим Вам всю рекламу на сайте (укажите свой ник в строку Ваше имя)!

×
  
Magnet ссылка

Элвин и бурундуки 3 / Alvin and the Chipmunks: Chipwrecked (Майк Митчел / Mike Mitchell) [2011, мультфильм, фэнтези, комедия, семейный, музыка, DVD5] R5 pb.wtf

Элвин и бурундуки 3 через торрент pb.wtf

Размер: 4.21 GB | Добавлен: 9 лет 6 мес. назад | Торрент скачан:568 раз
Скачать  

19-01-2012 21:13 Элвин и бурундуки 3 Скачать торрент  


Элвин и бурундуки 3 / Alvin and the Chipmunks: Chipwrecked
«Полундра!»
Страна: США
Студия: Bagdasarian Productions, Fox 2000 Pictures, Regency Enterprises, TCF Vancouver Prod
Жанр: мультфильм, фэнтези, комедия, семейный, музыка
Год выпуска: 2011
Мировая премьера: 14 декабря 2011
Российская премьера: 29 декабря 2011, «Двадцатый Век Фокс СНГ»
Дата выхода DVD: 26 января 2012
Дата выхода Blu-Ray: 19 апреля 2012
Продолжительность: 01:23:38
Перевод: Профессиональный (дублированный) [Лицензия]
Cубтитры: русские
Режиссер: Майк Митчел / Mike Mitchell
В ролях: Джейсон Ли, Дэвид Кросс, Дженни Слейт, Джастин Лонг, Мэттью Грей Гублер, Джесси МакКартни, Эми Полер, Анна Фэрис, Кристина Эпплгейт, Алан Тьюдик
Описание: Приключения троицы непоседливых братьев-бурундуков продолжаются! Элвин, Саймон и Теодор, а также их подруги бурундушки, просто не могут оставаться в стороне от различного рода неприятностей, сулящих им новые увлекательные приключения. Что на этот раз уготовила судьба нашим героям, и как они выпутаются из очередной передряги — вот в чём вопрос.
Бонусы: Смотрите в кино и на DVD

Качество: DVD5 R5
Формат: DVD-Video
Видео кодек: MPEG2
Аудио кодек: AC3
Видео: PAL 16:9 (720x576(0.488)) MPEG Video, 25,000 кадр/сек, 5058 Кбит/сек
Аудио #1: Russian (Dolby AC3, 6 ch) 384 Кбит/сек, 48,0 КГц
Аудио #2: Russian (DTS, 6 ch) 768 Кбит/сек, 48,0 КГц
Аудио #3: Ukrainian (Dolby AC3, 6 ch) 384 Кбит/сек, 48,0 КГц



Title:
Size: 4.21 Gb ( 4 417 538 KBytes ) - DVD-5
Enabled regions: 1, 2, 3, 4, 5, 6, 7, 8

VTS_01 :
Play Length: 01:23:38
Video: PAL 16:9 (720x576) VBR, Auto Pan&Scan
Audio:
Russian (Dolby AC3, 6 ch)
Russian (DTS, 6 ch)
Ukrainian (Dolby AC3, 6 ch)
Subtitles:
Russian
Russian

VTS_02 :
Play Length: 00:03:49
Video: PAL 16:9 (720x576) VBR, Auto Pan&Scan
Audio:
Not specified (Dolby AC3, 6 ch)
Not specified (Dolby AC3, 6 ch)
Not specified (Dolby AC3, 6 ch)
Russian (Dolby AC3, 2 ch)
Subtitles:
Russian
Russian

VTS_03 :
Play Length: 00:00:27
Video: PAL 16:9 (720x576) VBR, Auto Pan&Scan
Audio:
Russian (Dolby AC3, 6 ch)

VTS_04 :
Play Length: 00:01:02
Video: PAL 16:9 (720x576) VBR, Auto Pan&Scan
Audio:
English (Dolby AC3, 2 ch)
Subtitles:
Russian
Ukrainian

VTS_05 :
Play Length: 00:00:50
Video: PAL 4:3 (720x576) VBR
Audio:
Not specified (Dolby AC3, 6 ch)
Not specified (Dolby AC3, 6 ch)
Not specified (Dolby AC3, 6 ch)
Russian (Dolby AC3, 2 ch)
Subtitles:
Russian
Russian
Общее
Полное имя : G:\Новинки 2012\Jelvin.i.burunduki.3.2011.DVD9/VIDEO_TS\VTS_01_3.VOB
Формат : MPEG-PS
Размер файла : 1024 Мбайт
Продолжительность : 21 м.
Общий поток : 6714 Кбит/сек

Видео
Идентификатор : 224 (0xE0)
Формат : MPEG Video
Версия формата : Version 2
Профиль формата : Main@Main
Параметр BVOP формата : Да
Параметр матрицы формата : Выборочная
Продолжительность : 21 м.
Вид битрейта : Переменный
Битрейт : 5058 Кбит/сек
Максимальный битрейт : 7500 Кбит/сек
Ширина : 720 пикселей
Высота : 576 пикселей
Соотношение сторон : 16:9
Частота кадров : 25,000 кадров/сек
Стандарт вещания : PAL
Цветовое пространство : YUV
Субдискретизация насыщенности : 4:2:0
Битовая глубина : 8 бит
Тип развёртки : Прогрессивная
Порядок развёртки : Верхнее поле первое
Метод сжатия : С потерями
Бит/(Пиксели*Кадры) : 0.488
Размер потока : 771 Мбайт (75%)

Аудио #1
Идентификатор : 189 (0xBD)-128 (0x80)
Формат : AC-3
Формат/Информация : Audio Coding 3
Расширение режима : CM (complete main)
Режим смешивания : DVD-Video
Продолжительность : 21 м.
Вид битрейта : Постоянный
Битрейт : 384 Кбит/сек
Каналы : 6 каналов
Расположение каналов : Front: L C R, Side: L R, LFE
Частота : 48,0 КГц
Битовая глубина : 16 бит
Метод сжатия : С потерями
Задержка видео : -176 мс.
Размер потока : 58,6 Мбайт (6%)

Аудио #2
Идентификатор : 189 (0xBD)-130 (0x82)
Формат : AC-3
Формат/Информация : Audio Coding 3
Расширение режима : CM (complete main)
Режим смешивания : DVD-Video
Продолжительность : 21 м.
Вид битрейта : Постоянный
Битрейт : 384 Кбит/сек
Каналы : 6 каналов
Расположение каналов : Front: L C R, Side: L R, LFE
Частота : 48,0 КГц
Битовая глубина : 16 бит
Метод сжатия : С потерями
Задержка видео : -176 мс.
Размер потока : 58,6 Мбайт (6%)

Аудио #3
Идентификатор : 189 (0xBD)-137 (0x89)
Формат : DTS
Формат/Информация : Digital Theater Systems
Режим смешивания : DVD-Video
Продолжительность : 21 м.
Вид битрейта : Постоянный
Битрейт : 755 Кбит/сек
Каналы : 6 каналов
Расположение каналов : Front: L C R, Side: L R, LFE
Частота : 48,0 КГц
Битовая глубина : 24 бит
Метод сжатия : С потерями
Задержка видео : -218 мс.
Размер потока : 115 Мбайт (11%)










pb.wtf



Скачать Элвин и бурундуки 3 через торрент http://i1.imageban.ru/out/2012/01/19/3680fe03dd0b339bfade769c8deab1b2.jpg Скачать фильм Элвин и бурундуки 3 через торрент бесплантно в хорошем качестве Описание: Приключения троицы непоседливых братьев-бурундуков продолжаются! Элвин, Саймон и Теодор, а также их подруги бурундушки, просто не ... 4.6 10 52
Info! Золотая раздача, скачанное не засчитывается.
Торрент: Зарегистрирован [2012-01-19 21:13] · скачан: 568 раз
Статус: √ проверено
Размер: 4.21 GB
Как cкачать? Как скачать Элвин и бурундуки 3 через торрент | UTorrent

28-11-2019 20:33  

Отключить всю рекламу на сайте

19-01-2012 21:24 Элвин и бурундуки 3 Скачать торрент  

Спасибо) скоро рип будет?pb.wtf



19-01-2012 21:29 Элвин и бурундуки 3 Скачать торрент  

да жду рип и желательно с Укр.дорожкой....pb.wtf



19-01-2012 22:18 Элвин и бурундуки 3 Скачать торрент  

Спасибоpb.wtf



19-01-2012 22:46 Элвин и бурундуки 3 Скачать торрент  

На ночь пойдет)pb.wtf



20-01-2012 00:15 Элвин и бурундуки 3 Скачать торрент  

ну вот , можно глянутьpb.wtf



20-01-2012 01:39 Элвин и бурундуки 3 Скачать торрент  

как оноpb.wtf



20-01-2012 07:11 Элвин и бурундуки 3 Скачать торрент  

Спасибо!pb.wtf



    Дорогой пользователь! Огромная просьба, поблагодарите релизера, оцените раздачу и оставьте свои комментарий, если Вы скачали Элвин и бурундуки 3 через торрент бесплатно! Внесите свою лепту в развитие PiratBit!
    Комментировать посты могут только пользователи прошедшие не сложную регистрацию
    Показать сообщения:    

    Элвин и бурундуки 3 через торрент
    Скачать бесплатно Элвин и бурундуки 3
    Элвин и бурундуки 3 скачать торрент
    Элвин и бурундуки 3 смотреть онлайн
    Cкачать фильм Элвин и бурундуки 3 бесплатно
    Элвин и бурундуки 3 скачать торрент в хорошем качестве
    Элвин и бурундуки 3 смотреть онлайн бесплатно в хорошем качестве


    Вы не можете начинать темы
    Вы не можете отвечать на сообщения
    Вы не можете редактировать свои сообщения
    Вы не можете удалять свои сообщения
    Вы не можете голосовать в опросах
    Вы не можете прикреплять файлы к сообщениям
    Вы можете скачивать файлы