новый адрес пиратбит piratbit
MEGA NEWS Получи личный уникальный адрес сайта и защити себя от блокировок. Внимание количество ограничено!!!

iTunes

1+1

iTunes

мы

iTunes

1

iTunes

Чернобыль

iTunes

Ральф против интернета

Лицензия

ПШазам

Лицензия

Игра престолов

Лицензия

30
pack

ВАЖНО

!!Акция!!

Alien_RageХит недели

RePack

Resident Evil 21

ИГРА 18+

pack

RePack

Metro:Exodus

!!Акция!!

Alien_Rage

RePack

fifa19

RePack

Assassins Creed: Odyssey

RePack

NEED FOR SPEED™ PAYBACK

3 сезон

9 сезон

Бесстыжие 9 сезон

Все сериалы

все сериалы на PB.wtf

RePack

FAR CRY 5
Ребята, катастрофически не хватает 1900р. для оплаты серверов за АВГУСТ (всвязи с блокировками трафик упал в 3 раза), 1-2р., выручайте.
  

Высоцкий. Спасибо, что живой (Петр Буслов) [2011, Россия, драма, биография, BDRip 720p, лицензия] Original Rus pb.wtf

Высоцкий. Спасибо, что живой через торрент pb.wtf

Размер: 4.36 GB | Добавлен: 7 лет 9 мес. назад | Торрент скачан:401 раз
Скачать  

20-01-2012 17:37 Высоцкий. Спасибо, что живой Скачать торрент  

[font="Georgia"]Высоцкий. Спасибо, что живой

Год выпуска: 2011
Страна: Россия
Жанр: Драма
Продолжительность: 02:06:46

Перевод : [font="cursive"]Оригинал
Cубтитры: [font="Georgia"]нет

[font="Georgia"]Режиссер:
[font="segoe print"]Петр Буслов
В ролях:Оксана Акиньшина (Таня), Андрей Смоляков (Виктор Михайлович Бехтеев), Максим Леонидов (Паша), Андрей Панин (Анатолий Нефёдов), Владимир Ильин (полковник КГБ из Москвы), Иван Ургант (Сева Кулагин), Дмитрий Астрахан (Леонид), Сергей Безруков (Юра), Сергей Шакуров (Семён Владимирович Высоцкий), Алла Покровская (Нина Максимовна Высоцкая), Шухрат Иргашев, Анна Ардова (директор Дома культуры)

[font="Georgia"]Описание:
[font="cursive"]Действие фильма разворачивается в 1979 году, когда на одном из концертов Высоцкому становится плохо с сердцем. Он переживает клиническую смерть.



Качество: BDRip 720p
Видео формат: MKV
Audio кодек: AC3
Video кодек: AVC
Video: AVC, 1280x544 (2.35), 23.976 fps, 4 088 Kbps (0.239 bit/pixel)
Audio:AC-3, 48.0 KHz, 6 ch, 640 Kbps, CBR
General
Unique ID : 202910654181917996987940646591860415590 (0x98A72BA564167ED0A4F9FC7131119C66)
Complete name : D:\Ôèëüìû\Vusotzkij.2011.O.BDRip.720P.mkv
Format : Matroska
File size : 4.36 GiB
Duration : 2h 12mn
Overall bit rate : 4 728 Kbps
Encoded date : UTC 2012-01-20 03:52:31
Writing application : mkvmerge v4.9.1 ('Ich will') ñáîðêà îò Jul 11 2011 23:53:15
Writing library : libebml v1.2.1 + libmatroska v1.1.1

Video
ID : 1
Format : AVC
Format/Info : Advanced Video Codec
Format profile : High@L3.1
Format settings, CABAC : Yes
Format settings, ReFrames : 4 frames
Codec ID : V_MPEG4/ISO/AVC
Duration : 2h 12mn
Bit rate : 4 088 Kbps
Width : 1 280 pixels
Height : 544 pixels
Display aspect ratio : 2.35:1
Frame rate : 23.976 fps
Color space : YUV
Chroma subsampling : 4:2:0
Bit depth : 8 bits
Scan type : Progressive
Bits/(Pixel*Frame) : 0.245
Stream size : 3.69 GiB (84%)
Writing library : x264 core 116 r2044 392e762
Encoding settings : cabac=1 / ref=3 / deblock=1:0:0 / analyse=0x3:0x133 / me=hex / subme=5 / psy=1 / psy_rd=1.00:0.00 / mixed_ref=0 / me_range=16 / chroma_me=1 / trellis=1 / 8x8dct=1 / cqm=0 / deadzone=21,11 / fast_pskip=1 / chroma_qp_offset=0 / threads=12 / sliced_threads=0 / nr=0 / decimate=1 / interlaced=0 / bluray_compat=0 / constrained_intra=0 / bframes=16 / b_pyramid=2 / b_adapt=1 / b_bias=0 / direct=3 / weightb=0 / open_gop=0 / weightp=2 / keyint=250 / keyint_min=23 / scenecut=40 / intra_refresh=0 / rc_lookahead=40 / rc=2pass / mbtree=1 / bitrate=4088 / ratetol=1.0 / qcomp=0.60 / qpmin=0 / qpmax=69 / qpstep=4 / cplxblur=20.0 / qblur=0.5 / ip_ratio=1.40 / aq=1:1.00

Audio
ID : 2
Format : AC-3
Format/Info : Audio Coding 3
Mode extension : CM (complete main)
Codec ID : A_AC3
Duration : 2h 12mn
Bit rate mode : Constant
Bit rate : 640 Kbps
Channel(s) : 6 channels
Channel positions : Front: L C R, Side: L R, LFE
Sampling rate : 48.0 KHz
Bit depth : 16 bits
Compression mode : Lossy
Stream size : 605 MiB (14%)




pb.wtf



Скачать Высоцкий. Спасибо, что живой через торрент http://lostpic.net/images/4db48dae569762311d864786127cbf6b.jpg Скачать фильм Высоцкий. Спасибо, что живой через торрент бесплантно в хорошем качестве Описание:[font="cursive"]Действие фильма разворачивается в 1979 году, когда на одном из концертов Высоцкому становится плохо с сердцем. Он ... 5 10 10
Info! Золотая раздача, скачанное не засчитывается.
Торрент: Зарегистрирован [2012-01-20 17:37] · скачан: 401 раз
Статус: √ проверено
Размер: 4.36 GB
Как cкачать? Как скачать Высоцкий. Спасибо, что живой через торрент | qTorrent


>> Регистрируемся здесь <<






Отзывы и комментарии о схеме читаем и пишем здесь: ---> Отзывы и комментарии о схеме

Новые благодарочки в телеграм довольных пользователей:
скриншот   скриншот   скриншот   скриншот   скриншот
    Дорогой пользователь! Огромная просьба, поблагодарите релизера, оцените раздачу и оставьте свои комментарий, если Вы скачали Высоцкий. Спасибо, что живой через торрент бесплатно! Внесите свою лепту в развитие PiratBit!
    Комментировать посты могут только пользователи прошедшие не сложную регистрацию
    Показать сообщения:    

    Высоцкий. Спасибо, что живой через торрент
    Скачать бесплатно Высоцкий. Спасибо, что живой
    Высоцкий. Спасибо, что живой скачать торрент
    Высоцкий. Спасибо, что живой смотреть онлайн
    Cкачать фильм Высоцкий. Спасибо, что живой бесплатно
    Высоцкий. Спасибо, что живой скачать торрент в хорошем качестве
    Высоцкий. Спасибо, что живой смотреть онлайн бесплатно в хорошем качестве


    Вы не можете начинать темы
    Вы не можете отвечать на сообщения
    Вы не можете редактировать свои сообщения
    Вы не можете удалять свои сообщения
    Вы не можете голосовать в опросах
    Вы не можете прикреплять файлы к сообщениям
    Вы можете скачивать файлы