новый адрес пиратбит piratbit
MEGA NEWS Получи личный уникальный адрес сайта и защити себя от блокировок. Внимание количество ограничено!!!

iTunes

1+1

iTunes

мы

iTunes

1

iTunes

Чернобыль

iTunes

Ральф против интернета

Лицензия

ПШазам

Лицензия

Игра престолов

Лицензия

30
pack

ВАЖНО

!!Акция!!

Alien_RageХит недели

RePack

Resident Evil 21

ИГРА 18+

pack

RePack

Metro:Exodus

!!Акция!!

Alien_Rage

RePack

fifa19

RePack

Assassins Creed: Odyssey

RePack

NEED FOR SPEED™ PAYBACK

3 сезон

9 сезон

Бесстыжие 9 сезон

Все сериалы

все сериалы на PB.wtf

RePack

FAR CRY 5
Ребята, катастрофически не хватает 1900р. для оплаты серверов за АВГУСТ (всвязи с блокировками трафик упал в 3 раза), 1-2р., выручайте.
  

Кавказская пленница, или новые приключения Шурика (Леонид Гайдай) [1967, СССР, комедия, приключения, семейный, BDRip 1080p] ("КП", полная реставрация) Original Rus pb.wtf

Кавказская пленница, или новые приключения Шурика через торрент pb.wtf

Размер: 8.59 GB | Добавлен: 7 лет 9 мес. назад | Торрент скачан:804 раза
Скачать  

21-01-2012 17:08 Кавказская пленница, или новые приключения Шурика Скачать торрент  

Кавказская пленница, или новые приключения Шурика
Полная реставрация изображения и звука. Исходные киноматериалы подготовлены Госфильмофондом России. Покадровая цифровая реставрация изображения, ремастеринг звука и авторинг проведены объединением «Крупный план».
Год выпуска: 1967
Страна: СССР
Жанр: комедия, приключения, семейный
Продолжительность: 01:19:53
Перевод: не требуется
Оригинальная дорожка: русский
Субтитры: нет

Режиссер: Леонид Гайдай

В ролях: Александр Демьяненко, Наталья Варлей, Руслан Ахметов, Юрий Никулин, Георгий Вицин, Евгений Моргунов, Владимир Этуш, Фрунзик Мкртчян, Нина Гребешкова, Михаил Глузский

Описание: Отправившись в одну из горных республик собирать фольклор, герой фильма Шурик влюбляется в симпатичную девушку — «спортсменку, отличницу, и просто красавицу». Но ее неожиданно похищают, чтобы насильно выдать замуж. Наивный Шурик не сразу смог сообразить, что творится у него под носом, — однако затем отважно ринулся освобождать «кавказскую пленницу»…

Качество: BDRip 1080p (Rip by genkasper)
Исходник: Blu-Ray
Формат: MKV
Видео кодек: h-264
Аудио кодек: AC3, DTS
Видео: MPEG4/AVC, 1472x1080, 4:3, 23.976fps, 13500 kbps
Аудио 1: Русский: AC3, mono, 48KHz, 384kbps (оригинальная до реставрации)
Аудио 2: Русский: DTS, 6 channels, 48.0 KHz, 1510 Kbps (реставрированная)
Полное имя : Kavkazskaya.plennica.ili.novye.priklucheniya.Surika.1967.BDRip.1080p.by_genkasper.mkv
Формат : Matroska
Версия формата : Version 2
Размер файла : 8,59 Гбайт
Продолжительность : 1 ч. 19 м.
Общий поток : 15,4 Мбит/сек
Дата кодирования : UTC 2011-12-17 19:58:25
Программа кодирования : mkvmerge v5.1.0 ('And so it goes') built on Nov 28 2011 23:58:28
Библиотека кодирования : libebml v1.2.3 + libmatroska v1.3.0

Видео
Идентификатор : 1
Формат : AVC
Формат/Информация : Advanced Video Codec
Профиль формата : High@L4.1
Параметр CABAC формата : Да
Параметр ReFrames формата : 5 кадров
Идентификатор кодека : V_MPEG4/ISO/AVC
Продолжительность : 1 ч. 19 м.
Битрейт : 13,5 Мбит/сек
Ширина : 1472 пикселя
Высота : 1080 пикселей
Соотношение сторон : 4:3
Частота кадров : 23,976 кадра/сек
Цветовое пространство : YUV
Субдискретизация насыщенности : 4:2:0
Битовая глубина : 8 бит
Тип развёртки : Прогрессивная
Бит/(Пиксели*Кадры) : 0.354
Размер потока : 7,36 Гбайт (86%)
Библиотека кодирования : x264 core 115 r1936 7a9e08d
Настройки программы : cabac=1 / ref=5 / deblock=1:-1:-1 / analyse=0x3:0x113 / me=umh / subme=10 / psy=1 / psy_rd=1.00:0.10 / mixed_ref=1 / me_range=32 / chroma_me=1 / trellis=2 / 8x8dct=1 / cqm=0 / deadzone=21,11 / fast_pskip=0 / chroma_qp_offset=-3 / threads=9 / sliced_threads=0 / nr=0 / decimate=1 / interlaced=0 / bluray_compat=0 / constrained_intra=0 / bframes=10 / b_pyramid=2 / b_adapt=2 / b_bias=0 / direct=3 / weightb=1 / open_gop=0 / weightp=2 / keyint=250 / keyint_min=23 / scenecut=40 / intra_refresh=0 / rc_lookahead=50 / rc=2pass / mbtree=1 / bitrate=13500 / ratetol=1.0 / qcomp=0.70 / qpmin=0 / qpmax=69 / qpstep=4 / cplxblur=20.0 / qblur=0.5 / ip_ratio=1.40 / aq=1:1.00
Язык : English

Аудио #1
Идентификатор : 2
Формат : AC-3
Формат/Информация : Audio Coding 3
Расширение режима : CM (complete main)
Идентификатор кодека : A_AC3
Продолжительность : 1 ч. 19 м.
Вид битрейта : Постоянный
Битрейт : 384 Кбит/сек
Каналы : 1 канал
Расположение каналов : Front: C
Частота : 48,0 КГц
Битовая глубина : 16 бит
Метод сжатия : С потерями
Задержка видео : 24 мс.
Размер потока : 219 Мбайт (2%)
Заголовок : AC3 384 kb/s mono
Язык : Russian

Аудио #2
Идентификатор : 3
Формат : DTS
Формат/Информация : Digital Theater Systems
Идентификатор кодека : A_DTS
Продолжительность : 1 ч. 19 м.
Вид битрейта : Постоянный
Битрейт : 1510 Кбит/сек
Каналы : 6 каналов
Расположение каналов : Front: L C R, Side: L R, LFE
Частота : 48,0 КГц
Битовая глубина : 24 бит
Метод сжатия : С потерями
Задержка видео : 3 мс.
Размер потока : 863 Мбайт (10%)
Заголовок : DTS 1510 kb/s 5.1
Язык : Russian
x264 [info]: frame I:699 Avg QP:16.80 size:298420 PSNR Mean Y:46.64 U:51.89 V:51.23 Avg:47.73 Global:47.57
x264 [info]: frame P:23569 Avg QP:19.37 size:148747 PSNR Mean Y:43.79 U:49.29 V:48.57 Avg:44.91 Global:44.74
x264 [info]: frame B:90651 Avg QP:21.47 size: 48251 PSNR Mean Y:42.61 U:48.94 V:48.10 Avg:43.83 Global:43.63
x264 [info]: consecutive B-frames: 1.3% 1.6% 6.2% 16.6% 15.0% 58.2% 1.1% 0.1% 0.0% 0.0% 0.0%
x264 [info]: mb I I16..4: 13.1% 61.9% 25.0%
x264 [info]: mb P I16..4: 0.9% 28.6% 2.0% P16..4: 29.7% 26.7% 11.8% 0.0% 0.0% skip: 0.3%
x264 [info]: mb B I16..4: 0.1% 3.5% 0.2% B16..8: 49.2% 12.6% 3.7% direct:10.3% skip:20.5% L0:35.1% L1:49.9% BI:15.1%
x264 [info]: 8x8 transform intra:89.4% inter:60.3%
x264 [info]: direct mvs spatial:99.5% temporal:0.5%
x264 [info]: coded y,uvDC,uvAC intra: 99.0% 92.3% 64.1% inter: 49.7% 42.7% 4.8%
x264 [info]: i16 v,h,dc,p: 6% 5% 46% 43%
x264 [info]: i8 v,h,dc,ddl,ddr,vr,hd,vl,hu: 10% 9% 11% 9% 13% 11% 13% 11% 14%
x264 [info]: i4 v,h,dc,ddl,ddr,vr,hd,vl,hu: 10% 8% 5% 9% 15% 13% 15% 11% 15%
x264 [info]: i8c dc,h,v,p: 42% 25% 19% 15%
x264 [info]: Weighted P-Frames: Y:17.9% UV:6.9%
x264 [info]: ref P L0: 44.3% 17.1% 21.1% 8.2% 7.3% 2.0% 0.1%
x264 [info]: ref B L0: 89.8% 7.2% 2.0% 1.0%
x264 [info]: ref B L1: 98.0% 2.0%
x264 [info]: SSIM Mean Y:0.9726607 (15.632db)
x264 [info]: PSNR Mean Y:42.877 U:49.028 V:48.214 Avg:44.073
pb.wtf



Скачать Кавказская пленница, или новые приключения Шурика через торрент http://i30.fastpic.ru/big/2011/1217/c9/80884a137ef2b9b1be4a23918b5d08c9.png Скачать фильм Кавказская пленница, или новые приключения Шурика через торрент бесплантно в хорошем качестве Описание: Отправившись в одну из горных республик собирать фольклор, герой фильма Шурик влюбляется в симпатичную девушку — «спортсменку, ... 10 10 20
Info! Золотая раздача, скачанное не засчитывается.
Торрент: Зарегистрирован [2012-01-21 17:08] · скачан: 804 раз
Статус: √ проверено
Размер: 8.59 GB
Как cкачать? Как скачать Кавказская пленница, или новые приключения Шурика через торрент | qTorrent


>> Регистрируемся здесь <<






Отзывы и комментарии о схеме читаем и пишем здесь: ---> Отзывы и комментарии о схеме

Новые благодарочки в телеграм довольных пользователей:
скриншот   скриншот   скриншот   скриншот   скриншот

21-01-2012 17:18 Кавказская пленница, или новые приключения Шурика Скачать торрент  

genkasper
спасибо,в коллекцию забираю)))pb.wtf



21-01-2012 17:25 Кавказская пленница, или новые приключения Шурика Скачать торрент  

Хороший фильм, смотреть всем!pb.wtf



21-01-2012 19:46 Кавказская пленница, или новые приключения Шурика Скачать торрент  

Супер, огромнейшее спасибо!!!!!!!!!!pb.wtf



03-12-2013 02:41 Кавказская пленница, или новые приключения Шурика Скачать торрент  

Аудио 1: Русский: AC3, mono, 48KHz, 384kbps (оригинальная до реставрации)
Аудио 2: Русский: DTS, 6 channels, 48.0 KHz, 1510 Kbps (реставрированная)

Получается, реанимировали только звук, и добавили 6 дорог!? а как видео?
pb.wtf



10-05-2017 09:47 Кавказская пленница, или новые приключения Шурика Скачать торрент  

Станьте на раздачу,пож...!!! pb.wtf



    Дорогой пользователь! Огромная просьба, поблагодарите релизера, оцените раздачу и оставьте свои комментарий, если Вы скачали Кавказская пленница, или новые приключения Шурика через торрент бесплатно! Внесите свою лепту в развитие PiratBit!
    Комментировать посты могут только пользователи прошедшие не сложную регистрацию
    Показать сообщения:    

    Кавказская пленница, или новые приключения Шурика через торрент
    Скачать бесплатно Кавказская пленница, или новые приключения Шурика
    Кавказская пленница, или новые приключения Шурика скачать торрент
    Кавказская пленница, или новые приключения Шурика смотреть онлайн
    Cкачать фильм Кавказская пленница, или новые приключения Шурика бесплатно
    Кавказская пленница, или новые приключения Шурика скачать торрент в хорошем качестве
    Кавказская пленница, или новые приключения Шурика смотреть онлайн бесплатно в хорошем качестве


    Вы не можете начинать темы
    Вы не можете отвечать на сообщения
    Вы не можете редактировать свои сообщения
    Вы не можете удалять свои сообщения
    Вы не можете голосовать в опросах
    Вы не можете прикреплять файлы к сообщениям
    Вы можете скачивать файлы