1 сезон

3 сезон

iTunes

1

Line

MVO

iTunes

13

1 сезон

RePack

30

Deluxe

pack

Лицензия

ВАЖНО

ИГРА 18+

pack

RePack

MK11

RePack

jed

RePack

fifa19

RePack

RDR2

RePack

NEED FOR SPEED™ PAYBACK

4 сезон

9 сезон

Бесстыжие 9 сезон

Все сериалы

все сериалы на PB.wtf

RePack

FAR CRY 5

Anonymous, доброе утро, мы катастрофически не успеваем собрать деньги на оплату серверов, помогите нам пожалуйста 5,10,15р., для нас важна любая помощь . В качестве благодарности мы отключим Вам всю рекламу на сайте (укажите свой ник в строку Ваше имя)!

×
  
Magnet ссылка

Повторяющие реальность / Repeaters (Карл Бессай / Carl Bessai) [2010, фантастика, боевик, триллер, драма, криминал, DVD5] R5 pb.wtf

Повторяющие реальность через торрент pb.wtf

Размер: 4.36 GB | Добавлен: 9 лет 6 мес. назад | Торрент скачан:122 раза
Скачать  

22-01-2012 20:58 Повторяющие реальность Скачать торрент  

[font="Georgia"]
Повторяющие реальность / Repeaters
«Without consequences to our actions. Does morality even exist?»
Страна: Канада
Студия: Rampart Films, Raven West Films Ltd., Resonance Film & Video
Жанр: фантастика, боевик, триллер, драма, криминал
Год выпуска: 2010
Мировая премьера: 13 сентября 2010
Дата выхода DVD: 18 января 2012
Продолжительность: 01:25:36
Перевод: Профессиональный (многоголосый закадровый) [Лицензия]
Cубтитры: русские
Оригинальная аудиодорожка: английский
Режиссер: Карл Бессай / Carl Bessai
В ролях: Дастин Миллиган, Аманда Крю, Ричард де Клерк, Алексия Фаст, Габриель Роз, Хротгар Мэтьюз, Бенжамин Рэтнер, Том Шолте, Майкл Адамуэйт, Маной Суд
Описание: Трое молодых пациентов реабилитационной клиники застряли в ловушке времени. Каждый день они просыпаются в одном и том же чудовищном дне. И каждый день им необходимо его пережить. Можно ли остаться человеком в этом бесконечно повторяющемся лабиринте?

Бонусы: Нет

Качество: DVD5 R5
Формат: DVD-Video
Видео кодек: MPEG2
Аудио кодек: AC3
Видео: PAL 16:9 (720x576(0.559)) MPEG Video, 25,000 кадр/сек, 5798 Кбит/сек
Аудио #1: Russian (Dolby AC3, 6 ch) 384 Кбит/сек, 48,0 КГц
Аудио #2: Russian (Dolby AC3, 2 ch) 192 Кбит/сек, 48,0 КГц
Аудио #3: English (Dolby AC3, 6 ch) 384 Кбит/сек, 48,0 КГц



Title:
Size: 4.36 Gb ( 4 571 104 KBytes ) - DVD-5
Enabled regions: 1, 2, 3, 4, 5, 6, 7, 8

VTS_01 :
Play Length: 00:00:01+01:25:35
Video: PAL 16:9 (720x576) VBR, Auto Pan&Scan
Audio:
Russian (Dolby AC3, 6 ch)
Russian (Dolby AC3, 2 ch)
English (Dolby AC3, 6 ch)
Subtitles:
Russian
Russian

VTS_02 :
Play Length: 00:00:01+00:00:05+00:00:13
Video: PAL 16:9 (720x576) VBR, Auto Pan&Scan
Audio:
Russian (Dolby AC3, 6 ch)
Общее
Полное имя : G:\Новинки 2012\Povtorjajuwie.real'nost'.2010.DVD5\VIDEO_TS\VTS_01_1.VOB
Формат : MPEG-PS
Размер файла : 1024 Мбайт
Продолжительность : 20 м.
Общий поток : 6895 Кбит/сек

Видео
Идентификатор : 224 (0xE0)
Формат : MPEG Video
Версия формата : Version 2
Профиль формата : Main@Main
Параметр BVOP формата : Да
Параметр матрицы формата : Выборочная
Продолжительность : 20 м.
Битрейт : 5798 Кбит/сек
Максимальный битрейт : 6000 Кбит/сек
Ширина : 720 пикселей
Высота : 576 пикселей
Соотношение сторон : 16:9
Частота кадров : 25,000 кадров/сек
Стандарт вещания : PAL
Цветовое пространство : YUV
Субдискретизация насыщенности : 4:2:0
Битовая глубина : 8 бит
Тип развёртки : Чересстрочная
Порядок развёртки : Нижнее поле первое
Метод сжатия : С потерями
Бит/(Пиксели*Кадры) : 0.559
Размер потока : 861 Мбайт (84%)

Аудио #1
Идентификатор : 189 (0xBD)-128 (0x80)
Формат : AC-3
Формат/Информация : Audio Coding 3
Расширение режима : CM (complete main)
Режим смешивания : DVD-Video
Продолжительность : 20 м.
Вид битрейта : Постоянный
Битрейт : 384 Кбит/сек
Каналы : 6 каналов
Расположение каналов : Front: L C R, Side: L R, LFE
Частота : 48,0 КГц
Битовая глубина : 16 бит
Метод сжатия : С потерями
Размер потока : 57,0 Мбайт (6%)

Аудио #2
Идентификатор : 189 (0xBD)-129 (0x81)
Формат : AC-3
Формат/Информация : Audio Coding 3
Расширение режима : CM (complete main)
Режим смешивания : DVD-Video
Продолжительность : 20 м.
Вид битрейта : Постоянный
Битрейт : 192 Кбит/сек
Каналы : 2 канала
Расположение каналов : Front: L R
Частота : 48,0 КГц
Битовая глубина : 16 бит
Метод сжатия : С потерями
Размер потока : 28,5 Мбайт (3%)

Аудио #3
Идентификатор : 189 (0xBD)-130 (0x82)
Формат : AC-3
Формат/Информация : Audio Coding 3
Расширение режима : CM (complete main)
Режим смешивания : DVD-Video
Продолжительность : 20 м.
Вид битрейта : Постоянный
Битрейт : 384 Кбит/сек
Каналы : 6 каналов
Расположение каналов : Front: L C R, Side: L R, LFE
Частота : 48,0 КГц
Битовая глубина : 16 бит
Метод сжатия : С потерями
Размер потока : 57,0 Мбайт (6%)

Текст
Идентификатор : 189 (0xBD)-32 (0x20)
Формат : RLE
Формат/Информация : Run-length encoding
Режим смешивания : DVD-Video










pb.wtf



Скачать Повторяющие реальность через торрент http://i4.imageban.ru/out/2012/01/22/06e25275c551ca21e664b8673db38695.jpg Скачать фильм Повторяющие реальность через торрент бесплантно в хорошем качестве Описание: Трое молодых пациентов реабилитационной клиники застряли в ловушке времени. Каждый день они просыпаются в одном и том же ... 4.8 10 8
Info! Золотая раздача, скачанное не засчитывается.
Торрент: Зарегистрирован [2012-01-22 20:58] · скачан: 122 раз
Статус: √ проверено
Размер: 4.36 GB
Как cкачать? Как скачать Повторяющие реальность через торрент | UTorrent

28-11-2019 20:33  

Отключить всю рекламу на сайте

23-01-2012 11:32 Повторяющие реальность Скачать торрент  

Как фильм то ктонить гледел???pb.wtf



    Дорогой пользователь! Огромная просьба, поблагодарите релизера, оцените раздачу и оставьте свои комментарий, если Вы скачали Повторяющие реальность через торрент бесплатно! Внесите свою лепту в развитие PiratBit!
    Комментировать посты могут только пользователи прошедшие не сложную регистрацию
    Показать сообщения:    

    Повторяющие реальность через торрент
    Скачать бесплатно Повторяющие реальность
    Повторяющие реальность скачать торрент
    Повторяющие реальность смотреть онлайн
    Cкачать фильм Повторяющие реальность бесплатно
    Повторяющие реальность скачать торрент в хорошем качестве
    Повторяющие реальность смотреть онлайн бесплатно в хорошем качестве


    Вы не можете начинать темы
    Вы не можете отвечать на сообщения
    Вы не можете редактировать свои сообщения
    Вы не можете удалять свои сообщения
    Вы не можете голосовать в опросах
    Вы не можете прикреплять файлы к сообщениям
    Вы можете скачивать файлы