Доктор Стрэндж

Лицензия

Добыча

Дубляж

Дом дракона

1 сезон

Тор

Дубляж

В эфире

Дубляж

Там, где раки поют

MVO

Властелин колец

1 сезон

Ultimate

pack

Рекомендуем

30

Пиратка

ВАЖНО

ВАЖНО

Ghostwire

Пиратка

jed

RePack

nioh2

RePack

RDR2

RePack

NEED FOR SPEED™ PAYBACK

RePack

скачать торрент

Кинопоиск HD

Острые козырьки 6 сезон

6 сезон

FAR CRY 6

RePack

скачать торрент

Лицензия

скачать торрент

MVO

1

1 сезон

скачать торрент

1 сезон

скачать торрент

Лицензия

  

История дельфина / Dolphin Tale (Чарльз Мартин Смит / Charles Martin Smith) [2011 г., драма, семейный, BDRip (720p)]

История дельфина через торрент pb.wtf

Размер: 6.86 GB | Добавлен: 10 лет назад | Торрент скачан:118 раз
Смотреть онлайн | Скачать   

23-01-2012 19:16 История дельфина Скачать торрент  

[font="Monotype corsiva"] История дельфина | Dolphin Tale
«Inspired by the amazing true story of Winter»
Год выпуска: 2011
Страна: США
Жанр: драма, семейный
Продолжительность: 01:52:40
Перевод: Профессиональный (полное дублирование) [Лицензия]
Cубтитры: русские(forced, full-R5, Voronine), английские(full, SDH)
Оригинальная аудиодорожка: английский

Режиссер: Чарльз Мартин Смит / Charles Martin Smith

В ролях: Гарри Конник мл., Эшли Джадд, Натан Гэмбл, Крис Кристофферсон, Кози Цуельсдорфф, Морган Фриман, Остин Стоуэлл, Фрэнсис Стернхаген, Остин Хигсмит, Бетси Лэндин

Описание: Пронзительная история дружбы между мальчиком и дельфином, который потерял свой хвост в ловушке для крабов. Основано на реальных событиях.

Похожие раздачи: История дельфина

Качество: BDRip (720p)[font="Monotype corsiva"] [WiKi]
Формат: MKV
Видео кодек: H.26x
Аудио кодек: DTS,AC3
Видео: AVC,1280x720,6824 Kbps,23.976 fps
Аудио#1: Russian: 48 kHz, AC3, 3/2 (L,C,R,l,r) + LFE ch, ~384.00 kbps avg
Аудио#2: English: 48 kHz, DTS, 3/2 (L,C,R,l,r) + LFE ch, ~1536.00 kbps avg
Чаптеры: есть

Код:

General
Unique ID : 238412880106762123711795629030328823765 (0xB35CA686AD8B0A21995DDE286558EFD5)
Complete name : D:\Downloads\Видео\Dolphin.Tale.2011.720p.BluRay.x264.DTS-WiKi.mkv
Format : Matroska
File size : 6.86 GiB
Duration : 1h 52mn
Overall bit rate : 8 719 Kbps
Movie name : -Talian-
Encoded date : UTC 2011-12-22 15:18:11
Writing application : mkvmerge v5.0.1 ('Es ist Sommer') built on Oct 9 2011 11:55:43
Writing library : libebml v1.2.2 + libmatroska v1.3.0
Video
ID : 1
Format : AVC
Format/Info : Advanced Video Codec
Format profile : [email protected]
Format settings, CABAC : Yes
Format settings, ReFrames : 9 frames
Codec ID : V_MPEG4/ISO/AVC
Duration : 1h 52mn
Bit rate : 6 824 Kbps
Width : 1 280 pixels
Height : 720 pixels
Display aspect ratio : 16:9
Frame rate : 23.976 fps
Color space : YUV
Chroma subsampling : 4:2:0
Bit depth : 8 bits
Scan type : Progressive
Bits/(Pixel*Frame) : 0.309
Stream size : 5.24 GiB (76%)
Title : Dolphin.Tale.2011.720p.BluRay.x264.DTS-WiKi
Writing library : x264 core 98 r1649 c54c47d
Encoding settings : cabac=1 / ref=9 / deblock=1:-3:-3 / analyse=0x3:0x113 / me=umh / subme=10 / psy=1 / psy_rd=1.10:0.00 / mixed_ref=1 / me_range=32 / chroma_me=1 / trellis=2 / 8x8dct=1 / cqm=0 / deadzone=21,11 / fast_pskip=0 / chroma_qp_offset=-4 / threads=6 / sliced_threads=0 / nr=0 / decimate=0 / interlaced=0 / constrained_intra=0 / bframes=6 / b_pyramid=2 / b_adapt=2 / b_bias=0 / direct=3 / weightb=1 / weightp=2 / keyint=250 / keyint_min=25 / scenecut=40 / intra_refresh=0 / rc_lookahead=48 / rc=2pass / mbtree=1 / bitrate=6824 / ratetol=1.0 / qcomp=0.60 / qpmin=10 / qpmax=51 / qpstep=4 / cplxblur=20.0 / qblur=0.5 / ip_ratio=1.40 / aq=1:0.80
Language : English
Audio #1
ID : 2
Format : AC-3
Format/Info : Audio Coding 3
Mode extension : CM (complete main)
Codec ID : A_AC3
Duration : 1h 52mn
Bit rate mode : Constant
Bit rate : 384 Kbps
Channel(s) : 5 channels
Channel positions : Front: L C R, Side: L R
Sampling rate : 48.0 KHz
Bit depth : 16 bits
Compression mode : Lossy
Stream size : 309 MiB (4%)
Title : Дубляж-R5
Language : Russian
Audio #2
ID : 3
Format : DTS
Format/Info : Digital Theater Systems
Codec ID : A_DTS
Duration : 1h 52mn
Bit rate mode : Constant
Bit rate : 1 510 Kbps
Channel(s) : 6 channels
Channel positions : Front: L C R, Side: L R, LFE
Sampling rate : 48.0 KHz
Bit depth : 24 bits
Compression mode : Lossy
Stream size : 1.19 GiB (17%)
Title : Original
Language : English
Text #1
ID : 4
Format : UTF-8
Codec ID : S_TEXT/UTF8
Codec ID/Info : UTF-8 Plain Text
Title : Sub-forced
Language : Russian
Text #2
ID : 5
Format : UTF-8
Codec ID : S_TEXT/UTF8
Codec ID/Info : UTF-8 Plain Text
Title : Sub-full
Language : Russian
Text #3
ID : 6
Format : UTF-8
Codec ID : S_TEXT/UTF8
Codec ID/Info : UTF-8 Plain Text
Title : Sub-Voronine
Language : Russian
Text #4
ID : 7
Format : UTF-8
Codec ID : S_TEXT/UTF8
Codec ID/Info : UTF-8 Plain Text
Title : Sub-full
Language : English
Text #5
ID : 8
Format : UTF-8
Codec ID : S_TEXT/UTF8
Codec ID/Info : UTF-8 Plain Text
Title : Sub-SDH
Language : English
Menu
00:00:00.000 : 00:00:00.000
00:03:34.131 : 00:03:34.131
00:08:15.870 : 00:08:15.870
00:13:57.545 : 00:13:57.545
00:20:45.327 : 00:20:45.327
00:28:35.714 : 00:28:35.714
00:33:15.076 : 00:33:15.076
00:41:46.963 : 00:41:46.963
00:52:59.218 : 00:52:59.218
00:57:29.363 : 00:57:29.363
01:05:47.443 : 01:05:47.443
01:09:38.341 : 01:09:38.341
01:20:42.755 : 01:20:42.755
01:24:32.109 : 01:24:32.109
01:31:55.677 : 01:31:55.677
01:37:56.662 : 01:37:56.662
01:43:19.151 : 01:43:19.151




Скачать История дельфина через торрент http://i28.fastpic.ru/big/2012/0123/d8/14988a919fffbd9d94903cfb2ea838d8.jpg Скачать, смотреть онлайн История дельфина бесплантно в хорошем качестве Описание: Пронзительная история дружбы между мальчиком и дельфином, который потерял свой хвост в ловушке для крабов. Основано на реальных ... 10 10 1
Info! Золотая раздача, скачанное не засчитывается.
Торрент: Зарегистрирован [2012-01-23 19:16] · скачан: 118 раз
Статус: √ проверено
Размер: 6.86 GB
Как cкачать? Как скачать История дельфина через торрент | UTorrent

% Раздел Тема Автор DL S | L
Фильмы [HD 720p, 1080p] (Хороший звук DUB, MVO) [ 14.91 GB ] История дельфина 2 / Dolphin Tale 2 | Лицензия | 1080p, Dub, Лицензия Seedtank Скачать
1 | 1
Фильмы 2014 [DVDrip, WEB-DLRip, HDrip] [ 2.05 GB ] История дельфина 2 / Dolphin Tale 2 | Лицензия | HDRip, Дубляж - Лицензия / iTunes _KaisiK_ Скачать
1 | 0
Фильмы (DVD фильмы) [ 6.32 GB ] История дельфина / Dolphin Tale | | История дельфина / Dolphin Tale (Чарльз Мартин Смит / Charles Martin Smith voovaz Скачать
1 | 0

28-11-2019 20:33  


Отключить вcю реклaмy на сайте, в т.ч. и в плеере онлайн просмотра!

    Дорогой пользователь! Огромная просьба, поблагодарите релизера, оцените раздачу и оставьте свои комментарий, если Вы скачали История дельфина через торрент бесплатно!!
    Комментировать посты могут только пользователи прошедшие не сложную регистрацию
    Показать сообщения:    


    История дельфина через торрент
    Скачать бесплатно История дельфина
    История дельфина скачать торрент
    История дельфина смотреть онлайн
    Cкачать фильм История дельфина бесплатно
    История дельфина скачать торрент в хорошем качестве
    История дельфина смотреть онлайн бесплатно в хорошем качестве
    Вы не можете начинать темы
    Вы не можете отвечать на сообщения
    Вы не можете редактировать свои сообщения
    Вы не можете удалять свои сообщения
    Вы не можете голосовать в опросах
    Вы не можете прикреплять файлы к сообщениям
    Вы можете скачивать файлы
    История дельфина / Dolphin Tale [2011 г., драма, семейный, BDRip ] смотреть онлайн, скачать торрент picoco.icu