MEGA NEWS Получи личный уникальный адрес сайта и защити себя от блокировок. Внимание количество ограничено!!!

iTunes

1+1

iTunes

мы

iTunes

1

iTunes

Чернобыль

iTunes

Ральф против интернета

Лицензия

ПШазам

Лицензия

Игра престолов

Лицензия

30
pack

ВАЖНО

!!Акция!!

Alien_RageХит недели

RePack

Resident Evil 21

ИГРА 18+

pack

RePack

Metro:Exodus

!!Акция!!

Alien_Rage

RePack

fifa19

RePack

Assassins Creed: Odyssey

RePack

NEED FOR SPEED™ PAYBACK

3 сезон

9 сезон

Бесстыжие 9 сезон

Все сериалы

все сериалы на PB.wtf

RePack

FAR CRY 5
Ребята, катастрофически не хватает 1900р. для оплаты серверов за АВГУСТ (всвязи с блокировками трафик упал в 3 раза), 1-2р., выручайте.
  

Собачьe сердцe (Владимир Бортко) [1988, СССР, фантастика, драма, комедия, BDRip 1080p] ("КП", полная реставрация) Original Rus pb.wtf

Собачьe сердцe через торрент pb.wtf

Размер: 12.72 GB | Добавлен: 7 лет 8 мес. назад | Торрент скачан:182 раза
Скачать  

25-01-2012 06:33 Собачьe сердцe Скачать торрент  

Собачье сердце
Полная реставрация изображения и звука. Исходные киноматериалы подготовлены Госфильмофондом России. Покадровая цифровая реставрация изображения, ремастеринг звука и авторинг проведены объединением «Крупный план». Страна: СССР
Студия: Ленфильм
Жанр: фантастика, драма, комедия
Год выпуска: 1988
Продолжительность: 01:07:36 + 01:08:19
Перевод: не требуется
Cубтитры: нет
Оригинальная аудиодорожка: русский

Режиссер: Владимир Бортко

В ролях: Владимир Толоконников, Евгений Евстигнеев, Борис Плотников, Роман Карцев, Нина Русланова, Ольга Мелихова, Алексей Миронов, Анжелика Неволина, Наталья Фоменко, Иван Ганжа

Описание: Профессор Преображенский ставит смелые опыты, пытаясь превратить собаку Шарика в равного себе во всем человека. В результате получается некто Шариков. К сожалению, опыт доказывает, что собаке лучше оставаться собакой.

Релиз от:

Rip by_genkasper

Сэмпл:
1 серия
2 серия

Исходник: Blu-Ray
Тип релиза: BDRip 1080p
Контейнер: MKV

Видео: MPEG4/AVC, 1424x1080, 4:3, 23.976fps, 11500 kbps
Аудио 1: Русский: AC3, mono, 48KHz, 384kbps (оригинальная до реставрации)
Аудио 2: Русский: DTS, 6 channels, 48.0 KHz, 1510 Kbps (реставрированная)
Полное имя : Sobach'e serdce\Sobach'e serdce.s1.1988.BDRip.1080p.by_genkasper.mkv
Формат : Matroska
Версия формата : Version 2
Размер файла : 6,33 Гбайт
Продолжительность : 1 ч. 7 м.
Общий поток : 13,4 Мбит/сек
Дата кодирования : UTC 2011-12-15 04:55:32
Программа кодирования : mkvmerge v5.1.0 ('And so it goes') built on Nov 28 2011 23:58:28
Библиотека кодирования : libebml v1.2.3 + libmatroska v1.3.0

Видео
Идентификатор : 1
Формат : AVC
Формат/Информация : Advanced Video Codec
Профиль формата : High@L4.1
Параметр CABAC формата : Да
Параметр ReFrames формата : 4 кадра
Идентификатор кодека : V_MPEG4/ISO/AVC
Продолжительность : 1 ч. 7 м.
Битрейт : 11,5 Мбит/сек
Ширина : 1424 пикселя
Высота : 1080 пикселей
Соотношение сторон : 4:3
Частота кадров : 23,976 кадра/сек
Цветовое пространство : YUV
Субдискретизация насыщенности : 4:2:0
Битовая глубина : 8 бит
Тип развёртки : Прогрессивная
Бит/(Пиксели*Кадры) : 0.312
Размер потока : 5,31 Гбайт (84%)
Библиотека кодирования : x264 core 115 r1936 7a9e08d
Настройки программы : cabac=1 / ref=4 / deblock=1:-1:-1 / analyse=0x3:0x133 / me=umh / subme=10 / psy=1 / psy_rd=1.00:0.10 / mixed_ref=1 / me_range=24 / chroma_me=1 / trellis=2 / 8x8dct=1 / cqm=0 / deadzone=21,11 / fast_pskip=0 / chroma_qp_offset=-3 / threads=9 / sliced_threads=0 / nr=0 / decimate=1 / interlaced=0 / bluray_compat=0 / constrained_intra=0 / bframes=14 / b_pyramid=2 / b_adapt=2 / b_bias=0 / direct=3 / weightb=1 / open_gop=0 / weightp=2 / keyint=250 / keyint_min=23 / scenecut=40 / intra_refresh=0 / rc_lookahead=50 / rc=2pass / mbtree=1 / bitrate=11500 / ratetol=1.0 / qcomp=0.70 / qpmin=0 / qpmax=69 / qpstep=4 / cplxblur=20.0 / qblur=0.5 / ip_ratio=1.40 / aq=1:1.00
Язык : English

Аудио #1
Идентификатор : 2
Формат : AC-3
Формат/Информация : Audio Coding 3
Расширение режима : CM (complete main)
Идентификатор кодека : A_AC3
Продолжительность : 1 ч. 7 м.
Вид битрейта : Постоянный
Битрейт : 384 Кбит/сек
Каналы : 1 канал
Расположение каналов : Front: C
Частота : 48,0 КГц
Битовая глубина : 16 бит
Метод сжатия : С потерями
Задержка видео : 24 мс.
Размер потока : 186 Мбайт (3%)
Заголовок : AC3 384 kbs mono
Язык : Russian

Аудио #2
Идентификатор : 3
Формат : DTS
Формат/Информация : Digital Theater Systems
Идентификатор кодека : A_DTS
Продолжительность : 1 ч. 7 м.
Вид битрейта : Постоянный
Битрейт : 1510 Кбит/сек
Каналы : 6 каналов
Расположение каналов : Front: L C R, Side: L R, LFE
Частота : 48,0 КГц
Битовая глубина : 24 бит
Метод сжатия : С потерями
Задержка видео : 3 мс.
Размер потока : 730 Мбайт (11%)
Заголовок : DTS 1509 kbs 5.1
Язык : Russian
Полное имя : F:\My rips\Sobach'e serdce\Sobach'e serdce.s2.1988.BDRip.1080p.by_genkasper.mkv
Формат : Matroska
Версия формата : Version 2
Размер файла : 6,39 Гбайт
Продолжительность : 1 ч. 8 м.
Общий поток : 13,4 Мбит/сек
Дата кодирования : UTC 2011-12-16 00:32:56
Программа кодирования : mkvmerge v5.1.0 ('And so it goes') built on Nov 28 2011 23:58:28
Библиотека кодирования : libebml v1.2.3 + libmatroska v1.3.0

Видео
Идентификатор : 1
Формат : AVC
Формат/Информация : Advanced Video Codec
Профиль формата : High@L4.1
Параметр CABAC формата : Да
Параметр ReFrames формата : 4 кадра
Идентификатор кодека : V_MPEG4/ISO/AVC
Продолжительность : 1 ч. 8 м.
Битрейт : 11,5 Мбит/сек
Ширина : 1424 пикселя
Высота : 1080 пикселей
Соотношение сторон : 4:3
Частота кадров : 23,976 кадра/сек
Цветовое пространство : YUV
Субдискретизация насыщенности : 4:2:0
Битовая глубина : 8 бит
Тип развёртки : Прогрессивная
Бит/(Пиксели*Кадры) : 0.312
Размер потока : 5,36 Гбайт (84%)
Библиотека кодирования : x264 core 115 r1936 7a9e08d
Настройки программы : cabac=1 / ref=4 / deblock=1:-1:-1 / analyse=0x3:0x133 / me=umh / subme=10 / psy=1 / psy_rd=1.00:0.10 / mixed_ref=1 / me_range=24 / chroma_me=1 / trellis=2 / 8x8dct=1 / cqm=0 / deadzone=21,11 / fast_pskip=0 / chroma_qp_offset=-3 / threads=9 / sliced_threads=0 / nr=0 / decimate=1 / interlaced=0 / bluray_compat=0 / constrained_intra=0 / bframes=14 / b_pyramid=2 / b_adapt=2 / b_bias=0 / direct=3 / weightb=1 / open_gop=0 / weightp=2 / keyint=250 / keyint_min=23 / scenecut=40 / intra_refresh=0 / rc_lookahead=50 / rc=2pass / mbtree=1 / bitrate=11500 / ratetol=1.0 / qcomp=0.70 / qpmin=0 / qpmax=69 / qpstep=4 / cplxblur=20.0 / qblur=0.5 / ip_ratio=1.40 / aq=1:1.00
Язык : English

Аудио #1
Идентификатор : 2
Формат : AC-3
Формат/Информация : Audio Coding 3
Расширение режима : CM (complete main)
Идентификатор кодека : A_AC3
Продолжительность : 1 ч. 8 м.
Вид битрейта : Постоянный
Битрейт : 384 Кбит/сек
Каналы : 1 канал
Расположение каналов : Front: C
Частота : 48,0 КГц
Битовая глубина : 16 бит
Метод сжатия : С потерями
Задержка видео : 4 мс.
Размер потока : 188 Мбайт (3%)
Заголовок : AC3 384 kbs mono
Язык : Russian

Аудио #2
Идентификатор : 3
Формат : DTS
Формат/Информация : Digital Theater Systems
Идентификатор кодека : A_DTS
Продолжительность : 1 ч. 8 м.
Вид битрейта : Постоянный
Битрейт : 1510 Кбит/сек
Каналы : 6 каналов
Расположение каналов : Front: L C R, Side: L R, LFE
Частота : 48,0 КГц
Битовая глубина : 24 бит
Метод сжатия : С потерями
Задержка видео : 4 мс.
Размер потока : 738 Мбайт (11%)
Заголовок : DTS 1509 kbs 5.1
Язык : Russian
x264 [info]: frame I:510 Avg QP:17.17 size:173301 PSNR Mean Y:47.19 U:57.36 V:58.66 Avg:48.76 Global:48.52
x264 [info]: frame P:17455 Avg QP:19.81 size: 98526 PSNR Mean Y:44.34 U:55.03 V:56.20 Avg:45.93 Global:45.73
x264 [info]: frame B:79286 Avg QP:21.53 size: 50736 PSNR Mean Y:43.08 U:54.89 V:56.06 Avg:44.70 Global:44.48
x264 [info]: consecutive B-frames: 0.8% 0.5% 2.1% 8.0% 15.3% 56.6% 11.4% 1.0% 2.7% 0.7% 0.4% 0.3% 0.0% 0.1% 0.0%
x264 [info]: mb I I16..4: 3.8% 85.2% 11.0%
x264 [info]: mb P I16..4: 0.5% 25.4% 1.0% P16..4: 38.2% 29.0% 4.7% 0.2% 0.1% skip: 0.8%
x264 [info]: mb B I16..4: 0.1% 4.3% 0.1% B16..8: 39.6% 22.7% 7.2% direct: 9.5% skip:16.5% L0:43.2% L1:43.7% BI:13.0%
x264 [info]: 8x8 transform intra:94.8% inter:65.2%
x264 [info]: direct mvs spatial:99.1% temporal:0.9%
x264 [info]: coded y,uvDC,uvAC intra: 98.2% 23.4% 2.3% inter: 52.8% 5.7% 0.0%
x264 [info]: i16 v,h,dc,p: 23% 9% 29% 40%
x264 [info]: i8 v,h,dc,ddl,ddr,vr,hd,vl,hu: 11% 8% 10% 9% 14% 12% 13% 11% 14%
x264 [info]: i4 v,h,dc,ddl,ddr,vr,hd,vl,hu: 10% 7% 3% 9% 15% 14% 15% 11% 15%
x264 [info]: i8c dc,h,v,p: 68% 18% 12% 3%
x264 [info]: Weighted P-Frames: Y:12.5% UV:4.0%
x264 [info]: ref P L0: 44.0% 13.7% 27.7% 12.9% 1.7% 0.0%
x264 [info]: ref B L0: 87.4% 9.9% 2.7%
x264 [info]: ref B L1: 94.1% 5.9%
x264 [info]: SSIM Mean Y:0.9703248 (15.276db)
x264 [info]: PSNR Mean Y:43.327 U:54.929 V:56.098 Avg:44.942
x264 [info]: frame I:530 Avg QP:16.48 size:180558 PSNR Mean Y:47.62 U:56.92 V:58.17 Avg:49.15 Global:48.94
x264 [info]: frame P:17644 Avg QP:19.18 size:102561 PSNR Mean Y:44.67 U:54.69 V:55.82 Avg:46.23 Global:46.08
x264 [info]: frame B:80122 Avg QP:21.08 size: 49779 PSNR Mean Y:43.43 U:54.61 V:55.76 Avg:45.03 Global:44.84
x264 [info]: consecutive B-frames: 0.7% 0.5% 2.3% 8.5% 14.0% 59.2% 10.0% 0.8% 2.9% 0.4% 0.3% 0.2% 0.1% 0.0% 0.0%
x264 [info]: mb I I16..4: 4.5% 82.8% 12.7%
x264 [info]: mb P I16..4: 0.5% 24.8% 1.2% P16..4: 37.8% 29.1% 5.5% 0.3% 0.2% skip: 0.9%
x264 [info]: mb B I16..4: 0.1% 4.0% 0.1% B16..8: 38.9% 23.2% 7.3% direct: 9.2% skip:17.2% L0:42.9% L1:42.8% BI:14.3%
x264 [info]: 8x8 transform intra:94.0% inter:61.9%
x264 [info]: direct mvs spatial:99.6% temporal:0.4%
x264 [info]: coded y,uvDC,uvAC intra: 98.3% 27.3% 3.9% inter: 50.8% 6.2% 0.0%
x264 [info]: i16 v,h,dc,p: 19% 8% 31% 42%
x264 [info]: i8 v,h,dc,ddl,ddr,vr,hd,vl,hu: 12% 8% 11% 9% 13% 11% 13% 11% 13%
x264 [info]: i4 v,h,dc,ddl,ddr,vr,hd,vl,hu: 11% 7% 4% 9% 15% 14% 15% 11% 14%
x264 [info]: i8c dc,h,v,p: 64% 19% 13% 4%
x264 [info]: Weighted P-Frames: Y:11.6% UV:2.7%
x264 [info]: ref P L0: 44.5% 13.2% 27.8% 12.9% 1.6% 0.0%
x264 [info]: ref B L0: 87.9% 9.5% 2.6%
x264 [info]: ref B L1: 94.5% 5.5%
x264 [info]: SSIM Mean Y:0.9728426 (15.661db)
x264 [info]: PSNR Mean Y:43.672 U:54.634 V:55.781 Avg:45.268
pb.wtf



Скачать Собачьe сердцe через торрент http://i32.fastpic.ru/big/2011/1216/82/e6bd4b8d08f0f6877ef4fa95479e6082.jpg Скачать фильм Собачьe сердцe через торрент бесплантно в хорошем качестве Описание: Профессор Преображенский ставит смелые опыты, пытаясь превратить собаку Шарика в равного себе во всем человека. В результате ... 10 10 3
Info! Золотая раздача, скачанное не засчитывается.
Торрент: Зарегистрирован [2012-01-25 06:33] · скачан: 182 раз
Статус: √ проверено
Размер: 12.72 GB
Как cкачать? Как скачать Собачьe сердцe через торрент | qTorrent


>> Регистрируемся здесь <<






Отзывы и комментарии о схеме читаем и пишем здесь: ---> Отзывы и комментарии о схеме

Новые благодарочки в телеграм довольных пользователей:
скриншот   скриншот   скриншот   скриншот   скриншот

25-01-2012 06:43 Собачьe сердцe Скачать торрент  

Обожаю этот фильм, автору огромное спасибо!pb.wtf



25-01-2012 09:11 Собачьe сердцe Скачать торрент  

Высказывания профессора Преображенского актуальны и сегодня. А такие как Полиграф Полиграфович Шариков эволюционировали в бомжей. Доктор Барменталь достоин уважения преданностью и безукоризненной исполнительностью.
После картин "Собачье сердце" и "Мастер и Маргарита" многое перечитал из Булгакова.pb.wtf



    Дорогой пользователь! Огромная просьба, поблагодарите релизера, оцените раздачу и оставьте свои комментарий, если Вы скачали Собачьe сердцe через торрент бесплатно! Внесите свою лепту в развитие PiratBit!
    Комментировать посты могут только пользователи прошедшие не сложную регистрацию
    Показать сообщения:    

    Собачьe сердцe через торрент
    Скачать бесплатно Собачьe сердцe
    Собачьe сердцe скачать торрент
    Собачьe сердцe смотреть онлайн
    Cкачать фильм Собачьe сердцe бесплатно
    Собачьe сердцe скачать торрент в хорошем качестве
    Собачьe сердцe смотреть онлайн бесплатно в хорошем качестве


    Вы не можете начинать темы
    Вы не можете отвечать на сообщения
    Вы не можете редактировать свои сообщения
    Вы не можете удалять свои сообщения
    Вы не можете голосовать в опросах
    Вы не можете прикреплять файлы к сообщениям
    Вы можете скачивать файлы