Ссылка на приватное зеркало нашего сайта всего за 1$. Внимание количество ограничено!!!

2 сезон

iTunes

1 сезон

1

iTunes

iTunes

iTunes

1 сезон

RePack

30

ИГРА 18+

pack

ВАЖНО

!!Акция!!

Alien_RageХит недели

RePack

MK11
pack

Забери бонус

RePack

jed

!!Акция!!

Alien_Rage

RePack

fifa19

RePack

Assassins Creed: Odyssey

RePack

NEED FOR SPEED™ PAYBACK

4 сезон

9 сезон

Бесстыжие 9 сезон

Все сериалы

все сериалы на PB.wtf

RePack

FAR CRY 5
  

48 часов / 48 Hrs (Уолтер Хилл / Walter Hill) [1982, Боевик, триллер, драма, комедия, криминал, BDRip 1080p] pb.wtf

48 часов через торрент pb.wtf

Размер: 14.49 GB | Добавлен: 8 лет 9 мес. назад | Торрент скачан:23 раза
Скачать  

26-01-2012 16:35 48 часов Скачать торрент  

[font="Georgia"]48 часов / 48 Hrs. Страна: США
Жанр: Боевик, триллер, драма, комедия, криминал
Год выпуска: 1982
Продолжительность: 01:36:36

Перевод: Профессиональный (двухголосый, закадровый) + профессиональный (одноголосый, закадровый)
Русские субтитры: есть

Режиссер: Уолтер Хилл / Walter Hill

В ролях: Ник Нолти, Эдди Мёрфи, Аннетт О’Тул, Фрэнк МакРей, Джеймс Римар, Дэвид Патрик Келли, Сонни Лэндэм, Брайон Джеймс, Керри Шерман, Джонатан Бэнкс

Описание: Герой Ника Нолте - суровый сыщик, преследующий двух преступников, убивших полицейского. Но он не может справиться с задачей без помощи смышленого, но легкомысленного напарника, отбывающего срок за кражу полумиллиона долларов. Вынужденные партнеры, мягко говоря, с трудом находят общий язык, да и цели у них разные: первый жаждет отомстить негодяям, а второй спит и видит, как получить свои денежки и в придачу одну очень аппетитную дамочку.
Релиз от:

rip by genkasper
[font="Georgia"]Сэмпл
Тип релиза: BDRip
Контейнер: MKV
Видео: AVC, 1920x1080, 23.976 fps, 18.0 Mbps
Аудио №1: Русский AC3, 5.1, 48 kHz, ~448 kbps | Двухголосый закадровый, НТВ+
Аудио №2: Русский DTS, 5.1, 48 kHz, ~1510 kbps | Одноголосый закадровый, А. Михалев
Аудио №3: Английский DTS, 5.1, 48 kHz, ~1510 kbps
Субтитры: Русский *, Английский
Сохранены чаптеры
* - максимально убраны/смягчены матерные выражения, и тем не менее - просмотр с детьми/лицами с неокрепшей психикой - не рекоммендуется.
Полное имя : 48.Hrs.1982.BDRip.1080p.by_genkasper.mkv
Формат : Matroska
Версия формата : Version 2
Размер файла : 14,5 Гбайт
Продолжительность : 1 ч. 36 м.
Общий поток : 21,5 Мбит/сек
Дата кодирования : UTC 2012-01-26 16:20:29
Программа кодирования : mkvmerge v5.2.1 ('A Far Off Place') built on Jan 2 2012 23:21:10
Библиотека кодирования : libebml v1.2.3 + libmatroska v1.3.0

Видео
Идентификатор : 1
Формат : AVC
Формат/Информация : Advanced Video Codec
Профиль формата : High@L4.1
Параметр CABAC формата : Да
Параметр ReFrames формата : 4 кадра
Идентификатор кодека : V_MPEG4/ISO/AVC
Продолжительность : 1 ч. 36 м.
Битрейт : 18,0 Мбит/сек
Ширина : 1920 пикселей
Высота : 1080 пикселей
Соотношение сторон : 16:9
Частота кадров : 23,976 кадра/сек
Цветовое пространство : YUV
Субдискретизация насыщенности : 4:2:0
Битовая глубина : 8 бит
Тип развёртки : Прогрессивная
Бит/(Пиксели*Кадры) : 0.362
Размер потока : 11,9 Гбайт (82%)
Библиотека кодирования : x264 core 115 r1936 7a9e08d
Настройки программы : cabac=1 / ref=4 / deblock=1:-2:-2 / analyse=0x3:0x133 / me=umh / subme=10 / psy=1 / psy_rd=1.00:0.10 / mixed_ref=1 / me_range=24 / chroma_me=1 / trellis=2 / 8x8dct=1 / cqm=0 / deadzone=21,11 / fast_pskip=0 / chroma_qp_offset=-3 / threads=9 / sliced_threads=0 / nr=0 / decimate=1 / interlaced=0 / bluray_compat=0 / constrained_intra=0 / bframes=9 / b_pyramid=2 / b_adapt=2 / b_bias=0 / direct=3 / weightb=1 / open_gop=0 / weightp=2 / keyint=250 / keyint_min=23 / scenecut=40 / intra_refresh=0 / rc_lookahead=50 / rc=2pass / mbtree=1 / bitrate=18000 / ratetol=1.0 / qcomp=0.70 / qpmin=0 / qpmax=69 / qpstep=4 / cplxblur=20.0 / qblur=0.5 / ip_ratio=1.40 / aq=1:1.00
Язык : English

Аудио #1
Идентификатор : 2
Формат : AC-3
Формат/Информация : Audio Coding 3
Расширение режима : CM (complete main)
Идентификатор кодека : A_AC3
Продолжительность : 1 ч. 36 м.
Вид битрейта : Постоянный
Битрейт : 448 Кбит/сек
Каналы : 6 каналов
Расположение каналов : Front: L C R, Side: L R, LFE
Частота : 48,0 КГц
Битовая глубина : 16 бит
Метод сжатия : С потерями
Размер потока : 310 Мбайт (2%)
Заголовок : HTB
Язык : Russian

Аудио #2
Идентификатор : 3
Формат : DTS
Формат/Информация : Digital Theater Systems
Идентификатор кодека : A_DTS
Продолжительность : 1 ч. 36 м.
Вид битрейта : Постоянный
Битрейт : 1510 Кбит/сек
Каналы : 6 каналов
Расположение каналов : Front: L C R, Side: L R, LFE
Частота : 48,0 КГц
Битовая глубина : 24 бит
Метод сжатия : С потерями
Размер потока : 1,02 Гбайт (7%)
Заголовок : Mihalev
Язык : Russian

Аудио #3
Идентификатор : 4
Формат : DTS
Формат/Информация : Digital Theater Systems
Идентификатор кодека : A_DTS
Продолжительность : 1 ч. 36 м.
Вид битрейта : Постоянный
Битрейт : 1510 Кбит/сек
Каналы : 6 каналов
Расположение каналов : Front: L C R, Side: L R, LFE
Частота : 48,0 КГц
Битовая глубина : 24 бит
Метод сжатия : С потерями
Размер потока : 1,02 Гбайт (7%)
Заголовок : Original
Язык : English

Текст #1
Идентификатор : 5
Формат : UTF-8
Идентификатор кодека : S_TEXT/UTF8
Идентификатор кодека/Информация : UTF-8 Plain Text
Заголовок : Russian, SRT
Язык : Russian

Текст #2
Идентификатор : 6
Формат : UTF-8
Идентификатор кодека : S_TEXT/UTF8
Идентификатор кодека/Информация : UTF-8 Plain Text
Заголовок : English, SRT
Язык : English

Меню
00:00:00.000 : :(unnamed)
00:05:12.354 : :(unnamed)
00:10:52.318 : :(unnamed)
00:20:03.744 : :(unnamed)
00:24:12.034 : :(unnamed)
00:30:02.134 : :(unnamed)
00:36:54.003 : :(unnamed)
00:46:18.526 : :(unnamed)
00:57:29.780 : :(unnamed)
01:06:20.351 : :(unnamed)
01:11:18.191 : :(unnamed)
01:15:50.212 : :(unnamed)
01:19:30.516 : :(unnamed)
01:29:37.372 : :(unnamed)
01:32:30.086 : :(unnamed)
x264 [info]: frame I:734 Avg QP:17.00 size:246888 PSNR Mean Y:48.03 U:52.38 V:53.93 Avg:48.97 Global:48.73
x264 [info]: frame P:33273 Avg QP:18.73 size:133084 PSNR Mean Y:46.64 U:48.86 V:50.72 Avg:47.25 Global:46.89
x264 [info]: frame B:104977 Avg QP:19.73 size: 80304 PSNR Mean Y:45.71 U:47.94 V:50.21 Avg:46.29 Global:46.08
x264 [info]: consecutive B-frames: 1.2% 2.4% 19.0% 28.3% 16.7% 30.2% 1.5% 0.4% 0.2% 0.1%
x264 [info]: mb I I16..4: 3.5% 89.6% 6.9%
x264 [info]: mb P I16..4: 1.3% 37.4% 0.7% P16..4: 36.8% 19.7% 2.3% 0.0% 0.0% skip: 1.6%
x264 [info]: mb B I16..4: 0.2% 6.4% 0.1% B16..8: 37.5% 12.0% 3.4% direct:30.5% skip: 9.8% L0:42.6% L1:37.6% BI:19.8%
x264 [info]: 8x8 transform intra:95.2% inter:78.9%
x264 [info]: direct mvs spatial:97.9% temporal:2.1%
x264 [info]: coded y,uvDC,uvAC intra: 96.0% 97.5% 92.2% inter: 66.3% 77.4% 42.1%
x264 [info]: i16 v,h,dc,p: 36% 11% 8% 44%
x264 [info]: i8 v,h,dc,ddl,ddr,vr,hd,vl,hu: 11% 7% 8% 10% 12% 16% 10% 15% 12%
x264 [info]: i4 v,h,dc,ddl,ddr,vr,hd,vl,hu: 13% 5% 2% 10% 14% 20% 12% 15% 10%
x264 [info]: i8c dc,h,v,p: 67% 11% 11% 12%
x264 [info]: Weighted P-Frames: Y:2.1% UV:1.1%
x264 [info]: ref P L0: 46.1% 11.3% 27.9% 11.5% 3.2% 0.0%
x264 [info]: ref B L0: 84.7% 12.4% 3.0%
x264 [info]: ref B L1: 93.5% 6.5%
x264 [info]: SSIM Mean Y:0.9799448 (16.978db)
x264 [info]: PSNR Mean Y:45.947 U:48.188 V:50.355 Avg:46.531 Global:46.272 kb/s:17995.36
source -> DON -> genkasper







по скринам сравнения видно, что в этом рипе картинка не сыплется и меньше "размыленность"
Сравнение с исходником
Сравнение с DONpb.wtf



Скачать 48 часов через торрент http://i17.fastpic.ru/big/2011/0301/46/9ec47a449da1b2a2d58e26c57a16b246.jpg Скачать фильм 48 часов через торрент бесплантно в хорошем качестве Описание: Герой Ника Нолте - суровый сыщик, преследующий двух преступников, убивших полицейского. Но он не может справиться с задачей без ... 10 10 1
Info! Золотая раздача, скачанное не засчитывается.
Торрент: Зарегистрирован [2012-01-26 16:35] · скачан: 23 раз
Статус: √ проверено
Размер: 14.49 GB
Как cкачать? Как скачать 48 часов через торрент | qTorrent

% Раздел Тема Автор DL S | L
Фильмы до 2000 г. [ 1.37 GB ] Другие 48 часов / Another 48 Hrs [1990 ... DVDRip] chaga2009 Скачать
1 | 0
Фильмы до 2000 г. [ 1.37 GB ] 48 часов / 48 Hrs [1982 ... DVDRip] chaga2009 Скачать
1 | 0
Фильмы до 2000 г. [ 689 MB ] 48 часов / 48 Hrs [ DVDRip] dimon1695 Скачать
1 | 0


Последний раз редактировалось: genkasper (2012-02-03 12:38), всего редактировалось 1 раз

28-11-2019 20:33  

Отключить всю рекламу на сайте

26-01-2012 18:40 48 часов Скачать торрент  

спасибо)) а следующие 48 часов? будут?)) в таком же качестве) если можно.pb.wtf



26-01-2012 18:42 48 часов Скачать торрент  

romario1979 писал(а):

спасибо)) а следующие 48 часов? будут?)) в таком же качестве) если можно.

к сожалению пока нет исходника, по крайней мере я не нашёл... Кто знает где скачать - буду благодарен за ссылку в личку (ЛС)pb.wtf



    Дорогой пользователь! Огромная просьба, поблагодарите релизера, оцените раздачу и оставьте свои комментарий, если Вы скачали 48 часов через торрент бесплатно! Внесите свою лепту в развитие PiratBit!
    Комментировать посты могут только пользователи прошедшие не сложную регистрацию
    Показать сообщения:    

    48 часов через торрент
    Скачать бесплатно 48 часов
    48 часов скачать торрент
    48 часов смотреть онлайн
    Cкачать фильм 48 часов бесплатно
    48 часов скачать торрент в хорошем качестве
    48 часов смотреть онлайн бесплатно в хорошем качестве


    Вы не можете начинать темы
    Вы не можете отвечать на сообщения
    Вы не можете редактировать свои сообщения
    Вы не можете удалять свои сообщения
    Вы не можете голосовать в опросах
    Вы не можете прикреплять файлы к сообщениям
    Вы можете скачивать файлы