1 сезон

3 сезон

iTunes

1

iTunes

MVO

iTunes

13

1 сезон

RePack

30

Deluxe

pack

Лицензия

ВАЖНО

ИГРА 18+

pack

RePack

MK11

RePack

jed

RePack

fifa19

RePack

RDR2

RePack

NEED FOR SPEED™ PAYBACK

4 сезон

9 сезон

Бесстыжие 9 сезон

Все сериалы

все сериалы на PB.wtf

RePack

FAR CRY 5

Anonymous, доброй ночи, мы катастрофически не успеваем собрать деньги на оплату серверов, помогите нам пожалуйста 5,10,15р., для нас важна любая помощь . В качестве благодарности мы отключим Вам всю рекламу на сайте (укажите свой ник в строку Ваше имя)!

×
  
Magnet ссылка

Царь скорпионов 3: Книга мертвых / The Scorpion King 3: Battle for Redemption (Роэль Рейн / Roel Reine) [2011, фэнтези, боевик, приключения, DVD9] R5 pb.wtf

Царь скорпионов 3: Книга мертвых через торрент pb.wtf

Размер: 6.75 GB | Добавлен: 9 лет 6 мес. назад | Торрент скачан:156 раз
Скачать  

26-01-2012 20:22 Царь скорпионов 3: Книга мертвых Скачать торрент  

[font="Georgia"]
Царь скорпионов 3: Книга мертвых / The Scorpion King 3: Battle for Redemption
Страна: Таиланд
Студия: Universal Pictures
Жанр: фэнтези, боевик, приключения
Год выпуска: 2011
Мировая премьера: 17 января 2012
Дата выхода DVD: 9 февраля 2012
Продолжительность: 01:41:00
Перевод: Профессиональный (дублированный) [Лицензия]
Cубтитры: русские, английские, эстонские, латышские, литовские, польские, украинские
Оригинальная аудиодорожка: английский
Режиссер: Роэль Рейн / Roel Reine
В ролях: Виктор Уэбстер, Рон Перлман, Билли Зейн, Бостин Кристофер, Дэйв Батиста, Кевин «Кимбо Слайс» Фергюсон, Селина Ло, Кристал Вирулшанья, Джеффри Джулиано
Описание: С момента триумфального восхождения Матиуса к власти немало изменилось: он потерял трон и любимую. Вновь став воином-наемником, герой намерен защитить свое царство от гнета злого тирана и его армии призраков и вернуть прежнее могущество и славу.
Бонусы: Комментарий к фильму режиссёра Роэля Рейне, удавленные / расширенные сцены, монтаж вырезанных кадров, смешные моменты, мечи и скорпион: рассказ о съемках, подготовка к битве

Качество: DVD9 R5
Формат: DVD-Video
Видео кодек: MPEG2
Аудио кодек: AC3
Видео: PAL 16:9 (720x576(0.549)) MPEG Video, 25,000 кадр/сек, 5694 Кбит/сек
Аудио #1: English (Dolby AC3, 6 ch) 448 Кбит/сек, 48,0 КГц
Аудио #2: Polish (Dolby AC3, 6 ch) 384 Кбит/сек, 48,0 КГц
Аудио #3: Russian (Dolby AC3, 6 ch) 384 Кбит/сек, 48,0 КГц
Аудио #4: English (Dolby AC3, 2 ch) 192 Кбит/сек, 48,0 КГц



Title:
Size: 6.75 Gb ( 7 081 212 KBytes ) - DVD-9
Enabled regions: 1, 2, 3, 4, 5, 6, 7, 8

VTS_01 :
Play Length:
Video: PAL 16:9 (720x576) VBR, Auto Letterboxed
Audio:
English (Dolby AC3, 2 ch)
Subtitles:
English

VTS_02 :
Play Length: 01:41:00
Video: PAL 16:9 (720x576) VBR, Auto Letterboxed
Audio:
English (Dolby AC3, 6 ch)
Polish (Dolby AC3, 6 ch)
Russian (Dolby AC3, 6 ch)
English (Dolby AC3, 2 ch)
Subtitles:
English
Estonian
Latvian
Lithuanian
Polish
Russian
Ukrainian
English

VTS_03 :
Play Length: 00:12:27+00:01:55+00:04:35+00:01:18+00:00:38+00:00:51+00:02:57+00:04:03+00:02:07+00:12:45+00:05:40
Video: PAL 16:9 (720x576) VBR, Auto Letterboxed
Audio:
English (Dolby AC3, 2 ch)
Subtitles:
English
Polish
Russian

VTS_04 :
Play Length: 00:00:12+00:02:01
Video: PAL 16:9 (720x576) VBR, Auto Letterboxed
Audio:
English (Dolby AC3, 2 ch)
Subtitles:
English
Polish
Russian

VTS_05 :
Play Length:
Video: PAL 16:9 (720x576) VBR, Auto Letterboxed

VTS_06 :
Play Length:
Video: PAL 16:9 (720x576) VBR, Auto Letterboxed

VTS_07 :
Play Length:
Video: PAL 16:9 (720x576) VBR, Auto Letterboxed

VTS_08 :
Play Length:
Video: PAL 16:9 (720x576) VBR, Auto Letterboxed

VTS_09 :
Play Length:
Video: PAL 16:9 (720x576) VBR, Auto Letterboxed

VTS_10 :
Play Length:
Video: PAL 16:9 (720x576) VBR, Auto Letterboxed
Menu Video:
PAL 16:9 (720x576) VBR
Auto Letterboxed
Menu Audio:
Not specified (Dolby AC3, 6 ch)
Menu Subtitles:
Not specified
Menu English Language Unit :
Root Menu
Общее
Полное имя : G:\Новинки 2012\Car'.skorpionov.3.Kniga.mertvyh.2011.DVD9\VIDEO_TS\VTS_02_2.VOB
Формат : MPEG-PS
Размер файла : 1024 Мбайт
Продолжительность : 19 м.
Общий поток : 7246 Кбит/сек

Видео
Идентификатор : 224 (0xE0)
Формат : MPEG Video
Версия формата : Version 2
Профиль формата : Main@Main
Параметр BVOP формата : Да
Параметр матрицы формата : Выборочная
Параметр GOP формата : M=3, N=12
Продолжительность : 19 м.
Вид битрейта : Переменный
Битрейт : 5694 Кбит/сек
Максимальный битрейт : 9800 Кбит/сек
Ширина : 720 пикселей
Высота : 576 пикселей
Соотношение сторон : 16:9
Частота кадров : 25,000 кадров/сек
Стандарт вещания : PAL
Цветовое пространство : YUV
Субдискретизация насыщенности : 4:2:0
Битовая глубина : 8 бит
Тип развёртки : Прогрессивная
Порядок развёртки : Верхнее поле первое
Метод сжатия : С потерями
Бит/(Пиксели*Кадры) : 0.549
Размер потока : 804 Мбайт (79%)

Аудио #1
Идентификатор : 189 (0xBD)-128 (0x80)
Формат : AC-3
Формат/Информация : Audio Coding 3
Расширение режима : CM (complete main)
Режим смешивания : DVD-Video
Продолжительность : 19 м.
Вид битрейта : Постоянный
Битрейт : 448 Кбит/сек
Каналы : 6 каналов
Расположение каналов : Front: L C R, Side: L R, LFE
Частота : 48,0 КГц
Битовая глубина : 16 бит
Метод сжатия : С потерями
Задержка видео : -576 мс.
Размер потока : 63,3 Мбайт (6%)

Аудио #2
Идентификатор : 189 (0xBD)-129 (0x81)
Формат : AC-3
Формат/Информация : Audio Coding 3
Расширение режима : CM (complete main)
Режим смешивания : DVD-Video
Продолжительность : 19 м.
Вид битрейта : Постоянный
Битрейт : 384 Кбит/сек
Каналы : 6 каналов
Расположение каналов : Front: L C R, Side: L R, LFE
Частота : 48,0 КГц
Битовая глубина : 16 бит
Метод сжатия : С потерями
Задержка видео : -576 мс.
Размер потока : 54,3 Мбайт (5%)

Аудио #3
Идентификатор : 189 (0xBD)-130 (0x82)
Формат : AC-3
Формат/Информация : Audio Coding 3
Расширение режима : CM (complete main)
Режим смешивания : DVD-Video
Продолжительность : 19 м.
Вид битрейта : Постоянный
Битрейт : 384 Кбит/сек
Каналы : 6 каналов
Расположение каналов : Front: L C R, Side: L R, LFE
Частота : 48,0 КГц
Битовая глубина : 16 бит
Метод сжатия : С потерями
Задержка видео : -576 мс.
Размер потока : 54,3 Мбайт (5%)

Аудио #4
Идентификатор : 189 (0xBD)-131 (0x83)
Формат : AC-3
Формат/Информация : Audio Coding 3
Расширение режима : CM (complete main)
Режим смешивания : DVD-Video
Продолжительность : 19 м.
Вид битрейта : Постоянный
Битрейт : 192 Кбит/сек
Каналы : 2 канала
Расположение каналов : Front: L R
Частота : 48,0 КГц
Битовая глубина : 16 бит
Метод сжатия : С потерями
Задержка видео : -480 мс.
Размер потока : 27,1 Мбайт (3%)

Текст #1
Идентификатор : 189 (0xBD)-32 (0x20)
Формат : RLE
Формат/Информация : Run-length encoding
Режим смешивания : DVD-Video
Задержка видео : 1 с. 0 мс.

Текст #2
Идентификатор : 189 (0xBD)-33 (0x21)
Формат : RLE
Формат/Информация : Run-length encoding
Режим смешивания : DVD-Video
Задержка видео : 1 с. 0 мс.

Текст #3
Идентификатор : 189 (0xBD)-34 (0x22)
Формат : RLE
Формат/Информация : Run-length encoding
Режим смешивания : DVD-Video
Задержка видео : 1 с. 0 мс.

Текст #4
Идентификатор : 189 (0xBD)-35 (0x23)
Формат : RLE
Формат/Информация : Run-length encoding
Режим смешивания : DVD-Video
Задержка видео : 1 с. 0 мс.

Текст #5
Идентификатор : 189 (0xBD)-36 (0x24)
Формат : RLE
Формат/Информация : Run-length encoding
Режим смешивания : DVD-Video
Задержка видео : 1 с. 0 мс.

Текст #6
Идентификатор : 189 (0xBD)-37 (0x25)
Формат : RLE
Формат/Информация : Run-length encoding
Режим смешивания : DVD-Video
Задержка видео : 1 с. 0 мс.

Текст #7
Идентификатор : 189 (0xBD)-38 (0x26)
Формат : RLE
Формат/Информация : Run-length encoding
Режим смешивания : DVD-Video
Задержка видео : 1 с. 0 мс.

Текст #8
Идентификатор : 189 (0xBD)-39 (0x27)
Формат : RLE
Формат/Информация : Run-length encoding
Режим смешивания : DVD-Video
Продолжительность : 19 м.
Задержка видео : 3 с. 160 мс.










pb.wtf



Скачать Царь скорпионов 3: Книга мертвых через торрент http://i3.imageban.ru/out/2012/01/26/41f8594e815b34657301ff3d78a60d46.jpg Скачать фильм Царь скорпионов 3: Книга мертвых через торрент бесплантно в хорошем качестве Описание: С момента триумфального восхождения Матиуса к власти немало изменилось: он потерял трон и любимую. Вновь став воином-наемником, ... 9 10 1
Info! Золотая раздача, скачанное не засчитывается.
Торрент: Зарегистрирован [2012-01-26 20:22] · скачан: 156 раз
Статус: √ проверено
Размер: 6.75 GB
Как cкачать? Как скачать Царь скорпионов 3: Книга мертвых через торрент | UTorrent

28-11-2019 20:33  

Отключить всю рекламу на сайте

26-01-2012 20:44 Царь скорпионов 3: Книга мертвых Скачать торрент  

не советуюpb.wtf



26-01-2012 20:54 Царь скорпионов 3: Книга мертвых Скачать торрент  

Я сомневаюсь что дубляж...думаю многоголоскаpb.wtf



26-01-2012 21:15 Царь скорпионов 3: Книга мертвых Скачать торрент  

bassjumper писал(а):

Я сомневаюсь что дубляж...думаю многоголоска

А семпл для кого?Да и кинопоиск.

Роли дублировали: Александр Головчанский, Владимир Антоник, Илья Хвостиков, Александр Вороновpb.wtf



    Дорогой пользователь! Огромная просьба, поблагодарите релизера, оцените раздачу и оставьте свои комментарий, если Вы скачали Царь скорпионов 3: Книга мертвых через торрент бесплатно! Внесите свою лепту в развитие PiratBit!
    Комментировать посты могут только пользователи прошедшие не сложную регистрацию
    Показать сообщения:    

    Царь скорпионов 3: Книга мертвых через торрент
    Скачать бесплатно Царь скорпионов 3: Книга мертвых
    Царь скорпионов 3: Книга мертвых скачать торрент
    Царь скорпионов 3: Книга мертвых смотреть онлайн
    Cкачать фильм Царь скорпионов 3: Книга мертвых бесплатно
    Царь скорпионов 3: Книга мертвых скачать торрент в хорошем качестве
    Царь скорпионов 3: Книга мертвых смотреть онлайн бесплатно в хорошем качестве


    Вы не можете начинать темы
    Вы не можете отвечать на сообщения
    Вы не можете редактировать свои сообщения
    Вы не можете удалять свои сообщения
    Вы не можете голосовать в опросах
    Вы не можете прикреплять файлы к сообщениям
    Вы можете скачивать файлы