1 сезон

3 сезон

iTunes

1

iTunes

MVO

iTunes

13

1 сезон

RePack

30

Deluxe

pack

Лицензия

ВАЖНО

ИГРА 18+

pack

RePack

MK11

RePack

jed

RePack

fifa19

RePack

RDR2

RePack

NEED FOR SPEED™ PAYBACK

4 сезон

9 сезон

Бесстыжие 9 сезон

Все сериалы

все сериалы на PB.wtf

RePack

FAR CRY 5

Anonymous, доброй ночи, мы катастрофически не успеваем собрать деньги на оплату серверов, помогите нам пожалуйста 5,10,15р., для нас важна любая помощь . В качестве благодарности мы отключим Вам всю рекламу на сайте (укажите свой ник в строку Ваше имя)!

×
  
Magnet ссылка

Голубая волна 2 / Blue Crush 2 (Майк Эллиот / Mike Elliott) [2011, драма, мелодрама, спорт, DVD9] R5 pb.wtf

Голубая волна 2 через торрент pb.wtf

Размер: 7.62 GB | Добавлен: 9 лет 5 мес. назад | Торрент скачан:23 раза
Скачать  

28-01-2012 09:34 Голубая волна 2 Скачать торрент  

[font="Georgia"]
Голубая волна 2 / Blue Crush 2
Страна: США, ЮАР
Студия: Moonlighting Films South Africa, Universal Pictures
Жанр: драма, мелодрама, спорт
Год выпуска: 2011
Мировая премьера: 7 июня 2011
Дата выхода DVD: 26 января 2012
Продолжительность: 01:47:52
Перевод: Профессиональный (дублированный) [Лицензия]
Cубтитры: английские, итальянские, румынские, эстонские, латышские, литовские, украинские
Оригинальная аудиодорожка: английский
Режиссер: Майк Эллиот / Mike Elliott
В ролях: Саша Джексон, Элизабет Мэтис, Бен Милликен, Шарни Винсон, Крис Фишер, Гидеон Эмери, Рози Ходж, Роджер Халстон, Эндрю Ланж
Описание: Терзаемая воспоминаниями о своей умершей матери, Дана уезжает из Малибу и направляется в Южную Африку, чтобы осуществить мечту ее матери о серфинге в заливе Джефферус.
Бонусы: Альтернативное начало, удаленные сцены, смешные моменты, рассказ о съемках, серф-сафари! съемки в Южной Африке, на полной скорости! съемки сцен серфинга.

Релиз группы:
Качество: DVD9 R5
Формат: DVD-Video
Видео кодек: MPEG2
Аудио кодек: AC3
Видео: PAL 16:9 (720x576(0.501)) MPEG Video, 25,000 кадр/сек, 5191 Кбит/сек
Аудио #1: English (Dolby AC3, 6 ch) 384 Кбит/сек, 48,0 КГц
Аудио #2: Italiano (Dolby AC3, 6 ch) 384 Кбит/сек, 48,0 КГц
Аудио #3: Russian (Dolby AC3, 6 ch) 384 Кбит/сек, 48,0 КГц



Title: Рабочий
Size: 7.62 Gb ( 7 994 710 KBytes ) - DVD-9
Enabled regions: 1, 2, 3, 4, 5, 6, 7, 8

VTS_01 :
Play Length: 00:00:14
Video: PAL 16:9 (720x576) VBR, Auto Letterboxed
Audio:
English (Dolby AC3, 6 ch)

VTS_02 :
Play Length:
Video: PAL 4:3 (720x576) VBR

VTS_03 :
Play Length: 00:00:23
Video: PAL 16:9 (720x576) VBR, Auto Letterboxed
Audio:
English (Dolby AC3, 6 ch)

VTS_04 :
Play Length: 00:00:33
Video: PAL 16:9 (720x576) VBR, Auto Letterboxed
Audio:
English (Dolby AC3, 2 ch)
Subtitles:
English
Italiano
Russian
Romanian

VTS_05 :
Play Length: 00:01:52
Video: PAL 16:9 (720x576) VBR, Auto Letterboxed
Audio:
Italiano (Dolby AC3, 2 ch)

VTS_06 :
Play Length: 00:00:12
Video: PAL 16:9 (720x576) VBR, Auto Letterboxed
Audio:
English (Dolby AC3, 2 ch)
Subtitles:
English
Italiano
Russian
Romanian

VTS_07 :
Play Length: 00:01:52
Video: PAL 16:9 (720x576) VBR, Auto Letterboxed
Audio:
English (Dolby AC3, 2 ch)
Subtitles:
English
Italiano
Russian
Romanian

VTS_08 :
Play Length: 00:12:26
Video: PAL 16:9 (720x576) VBR, Auto Letterboxed
Audio:
English (Dolby AC3, 2 ch)
Subtitles:
English
Italiano
Russian
Romanian

VTS_09 :
Play Length: 00:06:20
Video: PAL 16:9 (720x576) VBR, Auto Letterboxed
Audio:
English (Dolby AC3, 2 ch)
Subtitles:
English
Italiano

VTS_10 :
Play Length: 00:06:52
Video: PAL 16:9 (720x576) VBR, Auto Letterboxed
Audio:
English (Dolby AC3, 2 ch)
Subtitles:
English
Italiano

VTS_11 :
Play Length: 01:47:52
Video: PAL 16:9 (720x576) VBR, Auto Letterboxed
Audio:
English (Dolby AC3, 6 ch)
Italiano (Dolby AC3, 6 ch)
Russian (Dolby AC3, 6 ch)
Subtitles:
English
Italiano
Romanian
Estonian
Latvian
Lithuanian
Ukrainian
Italiano
Russian

VTS_12 :
Play Length: 00:04:00
Video: PAL 16:9 (720x576) VBR, Auto Letterboxed
Audio:
English (Dolby AC3, 2 ch)
Subtitles:
English
Italiano

VTS_13 :
Play Length: 00:35:02+00:00:28+00:03:20+00:02:40+00:02:56+00:00:58+00:02:09+00:02:18+00:03:41+00:05:39+00:04:07+00:06:20
Video: PAL 16:9 (720x576) VBR, Auto Letterboxed
Audio:
English (Dolby AC3, 2 ch)
Subtitles:
English
Italiano

VTS_14 :
Play Length: 00:03:01
Video: PAL 16:9 (720x576) VBR, Auto Letterboxed
Audio:
English (Dolby AC3, 2 ch)
Subtitles:
English
Italiano
Russian
Romanian

VTS_15 :
Play Length: 00:02:35
Video: PAL 16:9 (720x576) VBR, Auto Letterboxed
Audio:
English (Dolby AC3, 2 ch)
Общее
Полное имя : G:\Новинки 2012\Golubaja.volna.2.2011.DVD9\VIDEO_TS\VTS_11_1.VOB
Формат : MPEG-PS
Размер файла : 1024 Мбайт
Продолжительность : 22 м.
Общий поток : 6471 Кбит/сек

Видео
Идентификатор : 224 (0xE0)
Формат : MPEG Video
Версия формата : Version 2
Профиль формата : Main@Main
Параметр BVOP формата : Да
Параметр матрицы формата : Выборочная
Продолжительность : 22 м.
Вид битрейта : Переменный
Битрейт : 5191 Кбит/сек
Максимальный битрейт : 9800 Кбит/сек
Ширина : 720 пикселей
Высота : 576 пикселей
Соотношение сторон : 16:9
Частота кадров : 25,000 кадров/сек
Стандарт вещания : PAL
Цветовое пространство : YUV
Субдискретизация насыщенности : 4:2:0
Битовая глубина : 8 бит
Тип развёртки : Чересстрочная
Порядок развёртки : Верхнее поле первое
Метод сжатия : С потерями
Бит/(Пиксели*Кадры) : 0.501
Размер потока : 821 Мбайт (80%)

Аудио #1
Идентификатор : 189 (0xBD)-128 (0x80)
Формат : AC-3
Формат/Информация : Audio Coding 3
Расширение режима : CM (complete main)
Режим смешивания : DVD-Video
Продолжительность : 22 м.
Вид битрейта : Постоянный
Битрейт : 384 Кбит/сек
Каналы : 6 каналов
Расположение каналов : Front: L C R, Side: L R, LFE
Частота : 48,0 КГц
Битовая глубина : 16 бит
Метод сжатия : С потерями
Размер потока : 60,8 Мбайт (6%)

Аудио #2
Идентификатор : 189 (0xBD)-129 (0x81)
Формат : AC-3
Формат/Информация : Audio Coding 3
Расширение режима : CM (complete main)
Режим смешивания : DVD-Video
Продолжительность : 22 м.
Вид битрейта : Постоянный
Битрейт : 384 Кбит/сек
Каналы : 6 каналов
Расположение каналов : Front: L C R, Side: L R, LFE
Частота : 48,0 КГц
Битовая глубина : 16 бит
Метод сжатия : С потерями
Размер потока : 60,8 Мбайт (6%)

Аудио #3
Идентификатор : 189 (0xBD)-130 (0x82)
Формат : AC-3
Формат/Информация : Audio Coding 3
Расширение режима : CM (complete main)
Режим смешивания : DVD-Video
Продолжительность : 22 м.
Вид битрейта : Постоянный
Битрейт : 384 Кбит/сек
Каналы : 6 каналов
Расположение каналов : Front: L C R, Side: L R, LFE
Частота : 48,0 КГц
Битовая глубина : 16 бит
Метод сжатия : С потерями
Размер потока : 60,8 Мбайт (6%)

Текст #1
Идентификатор : 189 (0xBD)-32 (0x20)
Формат : RLE
Формат/Информация : Run-length encoding
Режим смешивания : DVD-Video

Текст #2
Идентификатор : 189 (0xBD)-33 (0x21)
Формат : RLE
Формат/Информация : Run-length encoding
Режим смешивания : DVD-Video

Текст #3
Идентификатор : 189 (0xBD)-34 (0x22)
Формат : RLE
Формат/Информация : Run-length encoding
Режим смешивания : DVD-Video

Текст #4
Идентификатор : 189 (0xBD)-35 (0x23)
Формат : RLE
Формат/Информация : Run-length encoding
Режим смешивания : DVD-Video

Текст #5
Идентификатор : 189 (0xBD)-36 (0x24)
Формат : RLE
Формат/Информация : Run-length encoding
Режим смешивания : DVD-Video

Текст #6
Идентификатор : 189 (0xBD)-37 (0x25)
Формат : RLE
Формат/Информация : Run-length encoding
Режим смешивания : DVD-Video

Текст #7
Идентификатор : 189 (0xBD)-38 (0x26)
Формат : RLE
Формат/Информация : Run-length encoding
Режим смешивания : DVD-Video










pb.wtf



Скачать Голубая волна 2 через торрент http://i4.imageban.ru/out/2012/01/28/25127871875f2dd8e3f3309f0d9dd17c.png Скачать фильм Голубая волна 2 через торрент бесплантно в хорошем качестве Описание: Терзаемая воспоминаниями о своей умершей матери, Дана уезжает из Малибу и направляется в Южную Африку, чтобы осуществить мечту ее ... 4.5 10 4
Info! Золотая раздача, скачанное не засчитывается.
Торрент: Зарегистрирован [2012-01-28 09:34] · скачан: 23 раз
Статус: √ проверено
Размер: 7.62 GB
Как cкачать? Как скачать Голубая волна 2 через торрент | UTorrent

28-11-2019 20:33  

Отключить всю рекламу на сайте

28-01-2012 10:53 Голубая волна 2 Скачать торрент  

как фильм?pb.wtf



30-01-2012 20:28 Голубая волна 2 Скачать торрент  

А ПРО ЧТО ФИЛЬМ ТО ? СМОТРЕТЬ ХОТЬ СТОИТ !?pb.wtf



    Дорогой пользователь! Огромная просьба, поблагодарите релизера, оцените раздачу и оставьте свои комментарий, если Вы скачали Голубая волна 2 через торрент бесплатно! Внесите свою лепту в развитие PiratBit!
    Комментировать посты могут только пользователи прошедшие не сложную регистрацию
    Показать сообщения:    

    Голубая волна 2 через торрент
    Скачать бесплатно Голубая волна 2
    Голубая волна 2 скачать торрент
    Голубая волна 2 смотреть онлайн
    Cкачать фильм Голубая волна 2 бесплатно
    Голубая волна 2 скачать торрент в хорошем качестве
    Голубая волна 2 смотреть онлайн бесплатно в хорошем качестве


    Вы не можете начинать темы
    Вы не можете отвечать на сообщения
    Вы не можете редактировать свои сообщения
    Вы не можете удалять свои сообщения
    Вы не можете голосовать в опросах
    Вы не можете прикреплять файлы к сообщениям
    Вы можете скачивать файлы