Мега распродажа FORZA HORIZON 4 ULTIMATE+ВСЕ DLC+ОНЛАЙН всего за 499р. 349 руб. (супер цена). Внимание количество ограничено!!!

iTunes

1+1

iTunes

мы

iTunes

1

1 сезон

Чернобыль

1 сезон

Ральф против интернета

Лицензия

ПШазам

8 сезон

Игра престолов

Лицензия

30
pack

ВАЖНО

!!Акция!!

Alien_RageХит недели

RePack

Resident Evil 21

ИГРА 18+

pack

RePack

Metro:Exodus

!!Акция!!

Alien_Rage

RePack

fifa19

RePack

Assassins Creed: Odyssey

RePack

NEED FOR SPEED™ PAYBACK

3 сезон

9 сезон

Бесстыжие 9 сезон

Все сериалы

все сериалы на PB.wtf

RePack

FAR CRY 5
Ребята, катастрофически не хватает 2730р. для оплаты серверов за ИЮНЬ (всвязи с блокировками трафик упал в 3 раза), 1-2р., выручайте.
  

Миссия на Марс / Mission to Mars (Брайан Де Пальма) [2000 г., фантастика, триллер, драма, приключения, BDRip] pb.wtf

Миссия на Марс через торрент pb.wtf

Размер: 2.18 GB | Добавлен: 7 лет 5 мес. назад | Торрент скачан:158 раз
Скачать  

29-01-2012 07:58 Миссия на Марс Скачать торрент  

Миссия на Марс / Mission to MarsГод выпуска: 2000
Страна: США
Жанр: фантастика, триллер, драма, приключения
Продолжительность: 01:53:39
Перевод: Профессиональный (многоголосый, закадровый) + Авторский одноголосый (Ю. Живов) + Оригинальный (Английский)

Режиссер: Брайан Де Пальма
Сценарий: Джим Томас, Джон Томас, Грэм Йост
Бюджет: $100 000 000
Премьера в мире: 6 марта 2000



В ролях: Гэри Синиз, Тим Роббинс, Дон Чидл, Конни Нильсен, Джерри О`Коннелл, Питер Аутербридж, Каван Смит, Элиз Нил, Ким Делани...

Описание: Космический экипаж «Марс 1» погибает при загадочных обстоятельствах после приземления на Красную планету. Гибель всего командного состава не вызывает сомнений. Однако, не смотря на угрожающую опасность не вернуться, снаряжается повторная экспедиция «Марс 2». Ее миссия - разгадать тайну гибели своих предшественников и вернуться живыми. Но не один центр подготовки космонавтов в мире не смог бы подготовить этот экипаж к тому, что придется им испытать...

Качество: BDRip
Формат: AVI
Видео кодек: XviD
Аудио кодек: AC3
Видео: 720x304 (2,35:1), 24.000 fps, 1765 Kbps, 0.336 bits/pixel
Аудио#1: 48.0 KHz, AC3 5.1, 384.00 Kbps (Многоголосый закадровый)
Аудио#2: 48.0 KHz, AC3 5.1, 384.00 Kbps (Авторский Ю. Живов)
Аудио#3: 48.0 KHz, AC3 2.0, 192.00 Kbps (Оригинал - Английский)
Субтитры: Русский, Английский - внешние / srt

&
General
Complete name : D:\Роздачи\Mission to Mars.2000.HQBDRip-PT\Mission to Mars.2000.HQBDRip-PT.avi
Format : AVI
Format/Info : Audio Video Interleave
Format profile : OpenDML
File size : 2.18 GiB
Duration : 1h 53mn
Overall bit rate : 2 749 Kbps
Movie name : Миссия на Марс / Mission to Mars (2000) BDRip
Director : Rulya74 [720p]
Writing application : VirtualDubModRus 1.5.10.2 (build 2542/release)
Writing library : VirtualDubMod build 2542/release

Video
ID : 0
Format : MPEG-4 Visual
Format profile : Advanced Simple@L5
Format settings, BVOP : 1
Format settings, QPel : No
Format settings, GMC : No warppoints
Format settings, Matrix : Default (MPEG)
Codec ID : XVID
Codec ID/Hint : XviD
Duration : 1h 53mn
Bit rate : 1 765 Kbps
Width : 720 pixels
Height : 304 pixels
Display aspect ratio : 2.35:1
Frame rate : 24.000 fps
Color space : YUV
Chroma subsampling : 4:2:0
Bit depth : 8 bits
Scan type : Progressive
Compression mode : Lossy
Bits/(Pixel*Frame) : 0.336
Stream size : 1.40 GiB (64%)
Writing library : XviD 1.2.1 (UTC 2008-12-04)

Audio #1
ID : 1
Format : AC-3
Format/Info : Audio Coding 3
Mode extension : CM (complete main)
Codec ID : 2000
Duration : 1h 53mn
Bit rate mode : Constant
Bit rate : 384 Kbps
Channel(s) : 6 channels
Channel positions : Front: L C R, Side: L R, LFE
Sampling rate : 48.0 KHz
Bit depth : 16 bits
Compression mode : Lossy
Stream size : 312 MiB (14%)
Alignment : Split accross interleaves
Interleave, duration : 42 ms (1.00 video frame)
Interleave, preload duration : 500 ms

Audio #2
ID : 2
Format : AC-3
Format/Info : Audio Coding 3
Mode extension : CM (complete main)
Codec ID : 2000
Duration : 1h 53mn
Bit rate mode : Constant
Bit rate : 384 Kbps
Channel(s) : 6 channels
Channel positions : Front: L C R, Side: L R, LFE
Sampling rate : 48.0 KHz
Bit depth : 16 bits
Compression mode : Lossy
Stream size : 312 MiB (14%)
Alignment : Split accross interleaves
Interleave, duration : 42 ms (1.00 video frame)
Interleave, preload duration : 500 ms

Audio #3
ID : 3
Format : AC-3
Format/Info : Audio Coding 3
Mode extension : CM (complete main)
Codec ID : 2000
Duration : 1h 53mn
Bit rate mode : Constant
Bit rate : 192 Kbps
Channel(s) : 2 channels
Channel positions : Front: L R
Sampling rate : 48.0 KHz
Bit depth : 16 bits
Compression mode : Lossy
Stream size : 156 MiB (7%)
Alignment : Split accross interleaves
Interleave, duration : 42 ms (1.00 video frame)
Interleave, preload duration : 500 ms
pb.wtf



Скачать Миссия на Марс через торрент http://pic.kartinco.top/images/2011/oeyj6j5vp5.png Скачать фильм Миссия на Марс через торрент бесплантно в хорошем качестве Описание: Космический экипаж «Марс 1» погибает при загадочных обстоятельствах после приземления на Красную планету. Гибель всего командного ... 5 10 1
Info! Золотая раздача, скачанное не засчитывается.
Торрент: Зарегистрирован [2012-01-29 07:58] · скачан: 158 раз
Статус: √ проверено
Размер: 2.18 GB
Как cкачать? Как скачать Миссия на Марс через торрент | qTorrent

% Раздел Тема Автор DL S | L
Фильмы [HD 720p, 1080p] (Хороший звук DUB, MVO) [ 5.91 GB ] Миссия на Марс / Mission to Mars [2000 BDRip-HEVC 1080p ] DVO bober100 Скачать
2 | 0
Фильмы (Blu-ray, BD-Remux, HDDVD) [ 18.52 GB ] Миссия на Марс / Mission to Mars [2000 Blu-Ray Remux 1080p] MVO DVO AVO Леонид Ильич Скачать
1 | 0
Фильмы 2001-2005 [ 2.19 GB ] Миссия на Марс / Mission to Mars [2000 BDRip многоголосый ] axeplay Скачать
1 | 0
Фильмы [HD 720p, 1080p] (Хороший звук DUB, MVO) [ 18.38 GB ] Миссия на Марс / Mission to Mars [2000 BD-Remux] Меттерних К.В Скачать
1 | 0
Фильмы до 2000 г. [ 2.18 GB ] Миссия на Марс / Mission to Mars [2000 BDRip] кэп Скачать
1 | 0


>> Регистрируемся здесь <<






Отзывы и комментарии о схеме читаем и пишем здесь: ---> Отзывы и комментарии о схеме

Новые благодарочки в телеграм довольных пользователей:
скриншот   скриншот   скриншот   скриншот   скриншот

29-01-2012 08:06 Миссия на Марс Скачать торрент  

Кто скачает отпишитесьpb.wtf



29-01-2012 09:24 Миссия на Марс Скачать торрент  

Нормальный фильмец. Для своего времени.pb.wtf



29-01-2012 11:05 Миссия на Марс Скачать торрент  

Один раз глянуть можно,предварительно отключив мозг.Разухабистая пендосская фантастика))pb.wtf



    Дорогой пользователь! Огромная просьба, поблагодарите релизера, оцените раздачу и оставьте свои комментарий, если Вы скачали Миссия на Марс через торрент бесплатно! Внесите свою лепту в развитие PiratBit!
    Комментировать посты могут только пользователи прошедшие не сложную регистрацию
    Показать сообщения:    

    Миссия на Марс через торрент
    Скачать бесплатно Миссия на Марс
    Миссия на Марс скачать торрент
    Миссия на Марс смотреть онлайн
    Cкачать фильм Миссия на Марс бесплатно
    Миссия на Марс скачать торрент в хорошем качестве
    Миссия на Марс смотреть онлайн бесплатно в хорошем качестве


    Вы не можете начинать темы
    Вы не можете отвечать на сообщения
    Вы не можете редактировать свои сообщения
    Вы не можете удалять свои сообщения
    Вы не можете голосовать в опросах
    Вы не можете прикреплять файлы к сообщениям
    Вы можете скачивать файлы