1 сезон

1 сезон

iTunes

1

КиноПоиск HD

Кинопоиск HD

iTunes

13

1 сезон

RePack

30

Ultimate

ВАЖНО

ИГРА 18+

pack

RePack

MK11
pack

Легкие деньги

RePack

jed

RePack

fifa19

RePack

RDR2

RePack

NEED FOR SPEED™ PAYBACK

4 сезон

9 сезон

Бесстыжие 9 сезон

Все сериалы

все сериалы на PB.wtf

RePack

FAR CRY 5
  
Magnet ссылка

Адаптация / Adaptation (Спайк Джонз) [2002 г., драма, комедия, криминал, BDRip-AVC] pb.wtf

Адаптация через торрент pb.wtf

Размер: 2.18 GB | Добавлен: 9 лет 2 мес. назад | Торрент скачан:60 раз
Скачать  

29-01-2012 16:27 Адаптация Скачать торрент  

Адаптация / Adaptation.Год выпуска: 2002
Страна: США
Жанр: драма, комедия, криминал
Продолжительность: 01:54:55
Перевод: Профессиональный (двухголосый) + Оригинал (Английский)

Режиссер: Спайк Джонз
Сценарий: Чарли Кауфман, Сьюзэн Орлеан
Премьера в мире: 6 декабря 2002



В ролях: Николас Кейдж, Тильда Суинтон, Мэрил Стрип, Крис Купер, Джей Таваре, Лайтфут, Роджер Уилли, Джим Бивер, Кэра Сеймур, Даг Джонс, Стивен Тоболовски, Гэри Фармер, Питер Джейсон, Грегори Итцин, Кёртис Хэнсон, Агнес НаДин Бадду, Пол Форчун, Пол Джасмин, Лиза Лав, Венди Моугел, Дэвид О. Расселл, Джуди Грир, Мэгги Джилленхол, Роберт Дж. Стефенсон, Боб Йоркис, Линн Корт, Роджер И. Фантер, Сандра Ли Джимпел, Рон Ливингстон

Описание: В 1992 году Джон Ларош и его жена основывают во Флориде питомник для растений. Однако в автомобильной катастрофе погибают мать и дядя Лароша, а жена после прихода в сознание подает на развод. Спустя месяц из-за урагана Эндрю оказывается разрушенным питомник и дом. Лароша, благодаря его знаниям по выращиванию и поиску орхидей, нанимают местные индейцы семинолы, использующие орхидеи для создания наркотиков.

Спустя два года Лароша задерживают в заповеднике Факахачи. Последующий судебный процесс привлекает внимание журналистки Нью-Йоркера Сьюзан Орлин. Она поражена той страстью, с которой Ларош отдается орхидеям, и хочет написать об этом книгу. По мере знакомства между ней и Ларошем завязывается роман. Однако Сьюзан замужем, живет в Нью-Йорке и переезжать не собирается.

Качество: BDRip-AVC
Формат: MKV
Видео кодек: H.26x
Аудио кодек: AC3
Видео: 1024х556 (16:9), 23.976 fps, 2016 Kbps, 0.148 bit/pixel
Аудио#1: 48.0 KHz, AC3 5.1, 448.00 Kbps (Двухголосый [R5])
Аудио#2: 48.0 KHz, AC3 5.1, 256.00 Kbps (Оригинал)
Субтитры: вшитые отключаемые (srt), Русский, Английский

&
Общее
Уникальный идентификатор : 190710443387146221209265692677339228099 (0x8F797ED016771E05A21D162336FE27C3)
Полное имя : D:\Adaptation.2002.BDRip-AVC.PT.mkv
Формат : Matroska
Версия формата : Version 2
Размер файла : 2,18 Гбайт
Продолжительность : 1 ч. 54 м.
Общий поток : 2719 Кбит/сек
Название фильма : Адаптация / Adaptation. (2002) DRip-AVC rip by rulya74
Дата кодирования : UTC 2012-01-29 12:12:33
Программа кодирования : mkvmerge v4.9.1 ('Ich will') сборка от Jul 11 2011 23:53:15
Библиотека кодирования : libebml v1.2.1 + libmatroska v1.1.1

Видео
Идентификатор : 1
Формат : AVC
Формат/Информация : Advanced Video Codec
Профиль формата : High@L4.1
Параметр CABAC формата : Да
Параметр ReFrames формата : 8 кадров
Идентификатор кодека : V_MPEG4/ISO/AVC
Продолжительность : 1 ч. 54 м.
Битрейт : 2016 Кбит/сек
Ширина : 1024 пикселя
Высота : 556 пикселей
Соотношение сторон : 16:9
Частота кадров : 23,976 кадра/сек
Цветовое пространство : YUV
Субдискретизация насыщенности : 4:2:0
Битовая глубина : 8 бит
Тип развёртки : Прогрессивная
Бит/(Пиксели*Кадры) : 0.148
Размер потока : 1,57 Гбайт (72%)
Библиотека кодирования : x264 core 116 r2074 2641b9e
Настройки программы : cabac=1 / ref=8 / deblock=1:-3:-3 / analyse=0x3:0x113 / me=umh / subme=9 / psy=1 / psy_rd=1.00:0.00 / mixed_ref=1 / me_range=48 / chroma_me=1 / trellis=2 / 8x8dct=1 / cqm=0 / deadzone=21,11 / fast_pskip=1 / chroma_qp_offset=-2 / threads=3 / sliced_threads=0 / nr=0 / decimate=1 / interlaced=0 / bluray_compat=0 / constrained_intra=0 / bframes=7 / b_pyramid=2 / b_adapt=1 / b_bias=0 / direct=3 / weightb=1 / open_gop=0 / weightp=2 / keyint=250 / keyint_min=23 / scenecut=40 / intra_refresh=0 / rc=2pass / mbtree=0 / bitrate=2016 / ratetol=1.0 / qcomp=0.60 / qpmin=10 / qpmax=51 / qpstep=4 / cplxblur=20.0 / qblur=0.5 / ip_ratio=1.40 / pb_ratio=1.30 / aq=1:1.00
Default : Да
Forced : Нет

Аудио #1
Идентификатор : 2
Формат : AC-3
Формат/Информация : Audio Coding 3
Расширение режима : CM (complete main)
Идентификатор кодека : A_AC3
Продолжительность : 1 ч. 54 м.
Вид битрейта : Постоянный
Битрейт : 448 Кбит/сек
Каналы : 6 каналов
Расположение каналов : Front: L C R, Side: L R, LFE
Частота : 48,0 КГц
Битовая глубина : 16 бит
Метод сжатия : С потерями
Размер потока : 368 Мбайт (16%)
Заголовок : Двухголосый закадровый [R5]
Default : Да
Forced : Нет

Аудио #2
Идентификатор : 3
Формат : AC-3
Формат/Информация : Audio Coding 3
Расширение режима : CM (complete main)
Идентификатор кодека : A_AC3
Продолжительность : 1 ч. 54 м.
Вид битрейта : Постоянный
Битрейт : 256 Кбит/сек
Каналы : 6 каналов
Расположение каналов : Front: L C R, Side: L R, LFE
Частота : 48,0 КГц
Битовая глубина : 16 бит
Метод сжатия : С потерями
Размер потока : 210 Мбайт (9%)
Заголовок : Оригинал
Язык : English
Default : Нет
Forced : Нет

Текст #1
Идентификатор : 4
Формат : UTF-8
Идентификатор кодека : S_TEXT/UTF8
Идентификатор кодека/Информация : UTF-8 Plain Text
Язык : Russian
Default : Нет
Forced : Нет

Текст #2
Идентификатор : 5
Формат : UTF-8
Идентификатор кодека : S_TEXT/UTF8
Идентификатор кодека/Информация : UTF-8 Plain Text
Язык : English
Default : Нет
Forced : Нет

Меню
00:00:00.000 : en:
00:06:10.870 : en:
00:12:15.067 : en:
00:19:18.699 : en:
00:27:27.062 : en:
00:34:05.001 : en:
00:42:18.035 : en:
00:48:24.526 : en:
00:58:27.670 : en:
01:06:20.476 : en:
01:13:35.119 : en:
01:17:39.863 : en:
01:22:19.309 : en:
01:27:26.574 : en:
01:33:13.754 : en:
01:42:06.120 : en:
Фильм собрал 39 наград и 43 номинации на кинофестивалях. Среди них:

Оскар, 2003 год
Победитель:
Лучшая мужская роль второго плана (Крис Купер)
Номинации:
Лучшая мужская роль (Николас Кейдж)
Лучшая женская роль второго плана (Мерил Стрип)
Лучший адаптированный сценарий
Золотой глобус, 2003 год
Победитель:
Лучшая мужская роль второго плана (Крис Купер)
Лучшая женская роль второго плана (Мерил Стрип)
Номинации:
Лучший фильм (комедия или мюзикл)
Лучшая мужская роль (комедия или мюзикл) (Николас Кейдж)
Лучший режиссер (Спайк Джонз)
Лучший сценарий
Британская академия, 2003 год
Победитель:
Лучший адаптированный сценарий
Номинации:
Лучшая мужская роль (Николас Кейдж)
Лучшая мужская роль второго плана (Крис Купер)
Лучшая женская роль второго плана (Мерил Стрип)
Берлинский кинофестиваль, 2003 год
Победитель:
Серебряный Медведь — Гран-при жюри
Номинации:
Золотой Медведь
pb.wtf



Скачать Адаптация через торрент https://pic.kartinco.top/images/2011/rdr15zfyar.png Скачать фильм Адаптация через торрент бесплантно в хорошем качестве Описание: В 1992 году Джон Ларош и его жена основывают во Флориде питомник для растений. Однако в автомобильной катастрофе погибают мать и ... 5 10 3
Info! Золотая раздача, скачанное не засчитывается.
Торрент: Зарегистрирован [2012-01-29 16:27] · скачан: 60 раз
Статус: √ проверено
Размер: 2.18 GB
Как cкачать? Как скачать Адаптация через торрент | UTorrent

% Раздел Тема Автор DL S | L
Порно фильмы с сюжетом [ 1.36 GB ] Дневник Любовь XXX адаптации "Блокнот" / Diary Of Love A XXX Adaption Of "The Notebook" [2012 Feature Parody. DVDRip] Pir@tya2010 Скачать
1 | 0
Фильмы 2001-2005 [ 1.46 GB ] Адаптация / Adaptation [2002 BDRip] markfiter Скачать
1 | 0
Фильмы 2001-2005 [ 1.37 GB ] Адаптация / Adaptation [2002 DVDRip] Lil Badun Скачать
1 | 0

28-11-2019 20:33  

Отключить всю рекламу на сайте

29-01-2012 18:00 Адаптация Скачать торрент  

rulya74
Оба перевода двухголосные?pb.wtf



29-01-2012 18:17 Адаптация Скачать торрент  

Burlak1111
Второй оригинальный..............pb.wtf



    Дорогой пользователь! Огромная просьба, поблагодарите релизера, оцените раздачу и оставьте свои комментарий, если Вы скачали Адаптация через торрент бесплатно! Внесите свою лепту в развитие PiratBit!
    Комментировать посты могут только пользователи прошедшие не сложную регистрацию
    Показать сообщения:    

    Адаптация через торрент
    Скачать бесплатно Адаптация
    Адаптация скачать торрент
    Адаптация смотреть онлайн
    Cкачать фильм Адаптация бесплатно
    Адаптация скачать торрент в хорошем качестве
    Адаптация смотреть онлайн бесплатно в хорошем качестве


    Вы не можете начинать темы
    Вы не можете отвечать на сообщения
    Вы не можете редактировать свои сообщения
    Вы не можете удалять свои сообщения
    Вы не можете голосовать в опросах
    Вы не можете прикреплять файлы к сообщениям
    Вы можете скачивать файлы