Мега распродажа FORZA HORIZON 4 ULTIMATE+ВСЕ DLC+ОНЛАЙН всего за 499р. 349 руб. (супер цена). Внимание количество ограничено!!!

iTunes

1+1

iTunes

мы

iTunes

1

1 сезон

Чернобыль

1 сезон

Ральф против интернета

Лицензия

ПШазам

8 сезон

Игра престолов

Лицензия

30
pack

ВАЖНО

!!Акция!!

Alien_RageХит недели

RePack

Resident Evil 21

ИГРА 18+

pack

RePack

Metro:Exodus

!!Акция!!

Alien_Rage

RePack

fifa19

RePack

Assassins Creed: Odyssey

RePack

NEED FOR SPEED™ PAYBACK

3 сезон

9 сезон

Бесстыжие 9 сезон

Все сериалы

все сериалы на PB.wtf

RePack

FAR CRY 5
Ребята, катастрофически не хватает 2730р. для оплаты серверов за ИЮНЬ (всвязи с блокировками трафик упал в 3 раза), 1-2р., выручайте.
  

Идеальная игрушка / Life-Size (Марк Росман) [2000 г., фэнтези, комедия, семейный, DVDRip] pb.wtf

Идеальная игрушка через торрент pb.wtf

Размер: 778 MB | Добавлен: 7 лет 5 мес. назад | Торрент скачан:65 раз
Скачать  

30-01-2012 12:15 Идеальная игрушка Скачать торрент  

Идеальная игрушка / Life-Size

Год выпуска: 2000
Страна: США
Жанр: фэнтези, комедия, семейный
Продолжительность: 01:24:56
Перевод: Профессиональный (многоголосый, закадровый)

Режиссер: Марк Росман
Продюссер: Фитч Кэди, Э. Джеффри Смит, Билл Унгер
Сценарий: Марк Росман, Стефани Мур

Премьера в мире: 5 марта 2000





В ролях: Линдси Лохан, Джер Бернс, Энн Мари Лодер, Гарвин Санфорд, Том Батлер, Тайра Бэнкс

Описание: Кейси Стюарт (Линдсей Лохан) – обычный ребенок, но только очень подвижный и энергичный. Она не может долго сидеть на одном месте и жаждет приключений. Пижамные вечеринки с подружками, куклы Барби и плюшевые мишки, которые так любят девочки в ее возрасте, – все это не для нее. Гораздо больше ей нравится играть в футбол с мальчишками и отбивать мяч бейсбольной битой.
Мать девочки умерла много лет назад, и теперь Кейси живет вместе со своим отцом Беном Стюартом (Джери Бернс). Больше всего на свете девочке хотелось бы вернуть свою маму к жизни. Но вдовца уже пытается прибрать к рукам женщина по имени Дрю (Энн Мари Лодер), и отец полагает, что она вполне сможет заменить Кейси покойную мать.
Кейси Стюарт с этим категорически не согласна, и она идет на безумный шаг: покупает в букинистическом магазине магическую книгу, с помощью которой, как сказал продавец, можно воскрешать любимых. Кейси выполняет все так, как описано в книге, но… Дрю причесывает куклу, которую подарила будущей падчерице на день рождения, расческой ее матери. А свое следующее утро кукла Ева встречает живым человеком. Она безумно счастлива и рада своему новому состоянию и возможности видеть, слышать, ощущать окружающий мир во всем многообразии его цветов, звуков и запахов.
Теперь, чтобы вернуть Еву к своему первоначальному состоянию, Кейси необходимо купить второй том книги и провести ритуал, отменяющий действия оживляющей магии. Но вот незадача: в букинистическом магазине, где была куплена книга, нет второй части. Что же теперь делать?

Качество: DVDRip
Формат: AVI
Видео кодек: XviD
Аудио кодек: MP3
Видео: MPEG-4 Visual 1009 Кбит/сек 560 x 416 (4:3) 25.000 fps 0.173 bit/pixel
Аудио#1: MPEG Audio 128 Кбит/сек 2 канала, 44,1 КГц
Аудио#2: MPEG Audio 128 Кбит/сек 2 канала, 48,0 КГц

Общее
Полное имя : D:\Видео записи\Идеальная игрушка.avi
Формат : AVI
Формат/Информация : Audio Video Interleave
Размер файла : 778 Мбайт
Продолжительность : 1 ч. 24 м.
Общий поток : 1280 Кбит/сек
Программа кодирования : VirtualDubModRus 1.5.10.2 (build 2540/release)
Библиотека кодирования : VirtualDubMod build 2540/release

Видео
Идентификатор : 0
Формат : MPEG-4 Visual
Профиль формата : Advanced Simple@L5
Параметр BVOP формата : 1
Параметр QPel формата : Нет
Параметр GMC формата : Без точки перехода
Параметр матрицы формата : Default (MPEG)
Режим смешивания : Сжатый битовый поток
Идентификатор кодека : XVID
Идентификатор кодека/Подсказка : XviD
Продолжительность : 1 ч. 24 м.
Битрейт : 1009 Кбит/сек
Ширина : 560 пикселей
Высота : 416 пикселей
Соотношение сторон : 4:3
Частота кадров : 25,000 кадров/сек
Цветовое пространство : YUV
Субдискретизация насыщенности : 4:2:0
Битовая глубина : 8 бит
Тип развёртки : Прогрессивная
Метод сжатия : С потерями
Бит/(Пиксели*Кадры) : 0.173
Размер потока : 613 Мбайт (79%)
Библиотека кодирования : XviD 1.2.0.dev47 (UTC 2006-11-01)

Аудио #1
Идентификатор : 1
Формат : MPEG Audio
Версия формата : Version 1
Профиль формата : Layer 3
Идентификатор кодека : 55
Идентификатор кодека/Подсказка : MP3
Продолжительность : 1 ч. 24 м.
Вид битрейта : Постоянный
Битрейт : 128 Кбит/сек
Каналы : 2 канала
Частота : 44,1 КГц
Метод сжатия : С потерями
Размер потока : 77,8 Мбайт (10%)
Выравнивание : Разделение по промежуткам
Продолжительность промежутка : 40 мс. (1,00 видеокадр)
Время предзагрузки промежутка : 500 мс.

Аудио #2
Идентификатор : 2
Формат : MPEG Audio
Версия формата : Version 1
Профиль формата : Layer 3
Режим : Joint stereo
Расширение режима : MS Stereo
Идентификатор кодека : 55
Идентификатор кодека/Подсказка : MP3
Продолжительность : 1 ч. 24 м.
Вид битрейта : Постоянный
Битрейт : 128 Кбит/сек
Каналы : 2 канала
Частота : 48,0 КГц
Метод сжатия : С потерями
Размер потока : 77,8 Мбайт (10%)
Выравнивание : Соединение по промежуткам
Продолжительность промежутка : 40 мс. (1,00 видеокадр)
Время предзагрузки промежутка : 504 мс.
Библиотека кодирования : LAME3.97b
Настройки программы : -m j -V 4 -q 2 -lowpass 17 -b 128












pb.wtf



Скачать Идеальная игрушка через торрент http://pic.powertracker.org/relwiz/422881/120130121328422881_f0_0.jpg Скачать фильм Идеальная игрушка через торрент бесплантно в хорошем качестве Описание: Кейси Стюарт (Линдсей Лохан) – обычный ребенок, но только очень подвижный и энергичный. Она не может долго сидеть на одном месте ... 5 10 4
Info! Золотая раздача, скачанное не засчитывается.
Торрент: Зарегистрирован [2012-01-30 12:15] · скачан: 65 раз
Статус: √ проверено
Размер: 778 MB
Как cкачать? Как скачать Идеальная игрушка через торрент | qTorrent


>> Регистрируемся здесь <<






Отзывы и комментарии о схеме читаем и пишем здесь: ---> Отзывы и комментарии о схеме

Новые благодарочки в телеграм довольных пользователей:
скриншот   скриншот   скриншот   скриншот   скриншот
    Дорогой пользователь! Огромная просьба, поблагодарите релизера, оцените раздачу и оставьте свои комментарий, если Вы скачали Идеальная игрушка через торрент бесплатно! Внесите свою лепту в развитие PiratBit!
    Комментировать посты могут только пользователи прошедшие не сложную регистрацию
    Показать сообщения:    

    Идеальная игрушка через торрент
    Скачать бесплатно Идеальная игрушка
    Идеальная игрушка скачать торрент
    Идеальная игрушка смотреть онлайн
    Cкачать фильм Идеальная игрушка бесплатно
    Идеальная игрушка скачать торрент в хорошем качестве
    Идеальная игрушка смотреть онлайн бесплатно в хорошем качестве


    Вы не можете начинать темы
    Вы не можете отвечать на сообщения
    Вы не можете редактировать свои сообщения
    Вы не можете удалять свои сообщения
    Вы не можете голосовать в опросах
    Вы не можете прикреплять файлы к сообщениям
    Вы можете скачивать файлы