Ссылка на приватное зеркало нашего сайта всего за 1$. Внимание количество ограничено!!!

2 сезон

iTunes

1 сезон

1

2 сезон

2 сезон

iTunes

1 сезон

RePack

30

Ultimate

ВАЖНО

ИГРА 18+

pack

RePack

MK11
pack

Забери бонус

RePack

jed

!!Акция!!

Alien_Rage

RePack

fifa19

RePack

Assassins Creed: Odyssey

RePack

NEED FOR SPEED™ PAYBACK

4 сезон

9 сезон

Бесстыжие 9 сезон

Все сериалы

все сериалы на PB.wtf

RePack

FAR CRY 5
  

Спартак: Месть / Spartacus: Vengeance / Сезон: 2 / Серии: 1-10 (Полный сезон) (Майкл Херст) [2012, боевик, фэнтези, драма, HDTVRip] (LostFilm) pb.wtf

Нужен HDTV 1080i ?

 Да, даёшь качество! (191)

 Нет, обычного и 720p рипа достаточно. (182)

Всего проголосовало : 373

Скачать  

20-02-2012 18:13 Спартак: Месть Скачать торрент  

сиды в студию плизpb.wtf



20-02-2012 18:23 Спартак: Месть Скачать торрент  

vadik067
с момента начала раздачи прошло 10 мин, вы хоть хэш проверить дайтеpb.wtf



20-02-2012 18:27 Спартак: Месть Скачать торрент  

Messa-fan, да никакой паники, ты что??? А про время появления очередной серии будем знать!!!pb.wtf



20-02-2012 18:38 Спартак: Месть Скачать торрент  

4 серия :good: pb.wtf



24-02-2012 05:31 Спартак: Месть Скачать торрент  

от души огромное спасибо, красава, самый лучший сериал!!! Спасибо!!!pb.wtf



26-02-2012 10:10 Спартак: Месть Скачать торрент  

да! сериал крутой!!!pb.wtf



27-02-2012 20:31 Спартак: Месть Скачать торрент  

Добавлена 5 серия!pb.wtf



29-02-2012 14:26 Спартак: Месть Скачать торрент  

Круто! Спасибо ! ждем новые серии!!!!pb.wtf



03-03-2012 17:50 Спартак: Месть Скачать торрент  

Messa-fan писал(а):

Добавлена 5 серия!

может я чего то не понимая но когда скачиваеш торент файл там только 4 серии((pb.wtf



03-03-2012 17:55 Спартак: Месть Скачать торрент  

paaahaaan
вы темой не ошиблись? здесь 5 серий
pb.wtf



04-03-2012 05:31 Спартак: Месть Скачать торрент  

мда интересная фигня если торент файл сохранить на диск а потом окрыть то 5 серий а если сразу открывать торентом то 4))pb.wtf



05-03-2012 19:44 Спартак: Месть Скачать торрент  

Добавлена 6 серия!pb.wtf



06-03-2012 20:52 Спартак: Месть Скачать торрент  

Первая серия на 800 метров, шестая уже на 500. Логично предположить что десятая будет метров на 200-300 или в чем прикол?

Упс, маленько ошибся в нумерации, но все же интересно почему такая разница.pb.wtf



06-03-2012 21:09 Спартак: Месть Скачать торрент  

Budunarij
Это Лост, что с них взять - они всегда идут своим путём.
вот вам
Общее
Полное имя : F:\Раздачи\Раздачи\Spartacus.Vengeance.s01.rus.LostFilm\Spartacus.Vengeance.s01e02.rus.LostFilm.TV.avi
Формат : AVI
Формат/Информация : Audio Video Interleave
Размер файла : 554 Мбайт
Продолжительность : 52 м.
Режим общего битрейта : Переменный
Общий поток : 1481 Кбит/сек
Программа кодирования : Nandub v1.0rc2
Библиотека кодирования : Nandub build 1853/release

Видео
Идентификатор : 0
Формат : MPEG-4 Visual
Профиль формата : Simple@L3
Параметр BVOP формата : Нет
Параметр QPel формата : Нет
Параметр GMC формата : Без точки перехода
Параметр матрицы формата : Default (H.263)
Идентификатор кодека : XVID
Идентификатор кодека/Подсказка : XviD
Продолжительность : 52 м.
Битрейт : 1280 Кбит/сек
Ширина : 720 пикселей
Высота : 400 пикселей
Соотношение сторон : 16:9
Частота кадров : 23,976 кадра/сек
Цветовое пространство : YUV
Субдискретизация насыщенности : 4:2:0
Битовая глубина : 8 бит
Тип развёртки : Прогрессивная
Метод сжатия : С потерями
Бит/(Пиксели*Кадры) : 0.185
Размер потока : 479 Мбайт (86%)
Библиотека кодирования : XviD 1.2.1 (UTC 2008-12-04)

Аудио
Идентификатор : 1
Формат : MPEG Audio
Версия формата : Version 1
Профиль формата : Layer 3
Режим : Joint stereo
Расширение режима : MS Stereo
Идентификатор кодека : 55
Идентификатор кодека/Подсказка : MP3
Продолжительность : 52 м.
Вид битрейта : Переменный
Битрейт : 192 Кбит/сек
Каналы : 2 канала
Частота : 48,0 КГц
Метод сжатия : С потерями
Размер потока : 70,5 Мбайт (13%)
Выравнивание : Соединение по промежуткам
Продолжительность промежутка : 24 мс. (0,58 видеокадр)
Время предзагрузки промежутка : 462 мс.
Библиотека кодирования : LAME3.97b
Настройки программы : -m j -V 4 -q 3 -lowpass 18.6 --abr 192
и
Общее
Полное имя : F:\Раздачи\Раздачи\Spartacus.Vengeance.s01.rus.LostFilm\Spartacus.Vengeance.s01e05.rus.LostFilm.TV.avi
Формат : AVI
Формат/Информация : Audio Video Interleave
Размер файла : 816 Мбайт
Продолжительность : 54 м.
Режим общего битрейта : Переменный
Общий поток : 2076 Кбит/сек
Программа кодирования : Nandub v1.0rc2
Библиотека кодирования : Nandub build 1853/release

Видео
Идентификатор : 0
Формат : MPEG-4 Visual
Профиль формата : Simple@L3
Параметр BVOP формата : Нет
Параметр QPel формата : Нет
Параметр GMC формата : Без точки перехода
Параметр матрицы формата : Default (H.263)
Идентификатор кодека : XVID
Идентификатор кодека/Подсказка : XviD
Продолжительность : 54 м.
Битрейт : 1875 Кбит/сек
Ширина : 720 пикселей
Высота : 400 пикселей
Соотношение сторон : 16:9
Частота кадров : 23,976 кадра/сек
Цветовое пространство : YUV
Субдискретизация насыщенности : 4:2:0
Битовая глубина : 8 бит
Тип развёртки : Прогрессивная
Метод сжатия : С потерями
Бит/(Пиксели*Кадры) : 0.271
Размер потока : 737 Мбайт (90%)
Библиотека кодирования : XviD 1.2.1 (UTC 2008-12-04)

Аудио
Идентификатор : 1
Формат : MPEG Audio
Версия формата : Version 1
Профиль формата : Layer 3
Режим : Joint stereo
Расширение режима : MS Stereo
Идентификатор кодека : 55
Идентификатор кодека/Подсказка : MP3
Продолжительность : 54 м.
Вид битрейта : Переменный
Битрейт : 192 Кбит/сек
Каналы : 2 канала
Частота : 48,0 КГц
Метод сжатия : С потерями
Размер потока : 74,0 Мбайт (9%)
Выравнивание : Соединение по промежуткам
Продолжительность промежутка : 24 мс. (0,58 видеокадр)
Время предзагрузки промежутка : 463 мс.
Библиотека кодирования : LAME3.97b
Настройки программы : -m j -V 4 -q 3 -lowpass 18.6 --abr 192
pb.wtf



07-03-2012 07:32 Спартак: Месть Скачать торрент  

Цитата:

Это Лост, что с них взять - они всегда идут своим путём.
вот вам

Ага, спасибо. Визуально сравнил эти серии на моей смотровой аппаратуре.
Пятая - артефактов в темных сценах меньше по сравнению со второй, но на динамичных сценах наблюдаются некоторые рывки изображения.
Вторая - картинка слегка замылена по сравнению с пятой, больше артефактов, но в динамике все ок, без рывков.
Дилемма однако))pb.wtf



11-03-2012 13:20 Спартак: Месть Скачать торрент  

А хотелось бы узнать про 7 серию что нибудь слышно?pb.wtf



Друзья, наш проект PiratBit построен на чистом энтузиазме. Денег от рекламы он приносит мало, потому как нет хороших, богатых рекламодателей, которые бы хотели работать с сайтами, которые нарушают законодательство той или иной страны, да и вешать какую-то шлако-рекламу с вирусами тоже мы не хотим, поскольку мы уважаем своих пользователей и Ваша безопасность на нашем сайте для нас превыше всего. В связи с этим, мы вынуждены просить помощи у каждого из Вас. Каких-то 3, 5, 10 рублей для каждого из Вас по большому счету копейки, а для нас это будет хорошая поддержка.
Нашими приоритетами всегда были качество и быстрота везде и во всем!!!
Технически так сложилось, чтобы все "летало" мы используем 4 мощных абузоустойчивых сервера, каждый из которых стоит 100$ в месяц.
Ребята, мы будем рады любой помощи, надеюсь на понимание Devi...

Важно, если ваш платеж составляет больше 100 руб.(единоразово) то мы для вас отключим рекламу на месяц, 200=2мес., 300=3мес., 400=4мес., если больше чем 499 руб.(единоразово) то на 6 месяцев, УКАЗЫВАЙТЕ СВОЙ НИК В ПРИМЕЧАНИИ К ПЛАТЕЖУ!


Яндекс Деньги,QIWI,WebMoney,Steam,Payeer,СберБанк,Мобильный,BitCoin,PayPal

11-03-2012 13:55 Спартак: Месть Скачать торрент  

Snakes666 писал(а):

А хотелось бы узнать про 7 серию что нибудь слышно?

Завтра вечером!!! pb.wtf



12-03-2012 16:53 Спартак: Месть Скачать торрент  

пара бы выкладывать уже) 7-ю)pb.wtf



12-03-2012 17:49 Спартак: Месть Скачать торрент  

Добавлена 7 серия!pb.wtf



12-03-2012 18:04 Спартак: Месть Скачать торрент  

DenHanter, ты дождался)))pb.wtf



13-03-2012 07:44 Спартак: Месть Скачать торрент  

И не только он дождался,но и другие тоже.pb.wtf



15-03-2012 10:41 Спартак: Месть Скачать торрент  

А 8, когда готова будет?pb.wtf



15-03-2012 10:50 Спартак: Месть Скачать торрент  

Skatcher2
серии выходят вечером в понедельникpb.wtf



16-03-2012 09:54 Спартак: Месть Скачать торрент  

Огромное спасибо!! Подскажи когда ориентировочно выдут оставшиеся серии?pb.wtf



16-03-2012 14:41 Спартак: Месть Скачать торрент  

Даты выхода серий в США в шапке под спойлеромpb.wtf



Дорогой пользователь! Огромная просьба, поблагодарите релизера, оцените раздачу и оставьте свои комментарий, если Вы скачали Спартак: Месть через торрент бесплатно! Внесите свою лепту в развитие PiratBit!
Комментировать посты могут только пользователи прошедшие не сложную регистрацию
Показать сообщения:    

Спартак: Месть через торрент
Скачать бесплатно Спартак: Месть
Спартак: Месть скачать торрент
Спартак: Месть смотреть онлайн
Cкачать фильм Спартак: Месть бесплатно
Спартак: Месть скачать торрент в хорошем качестве
Спартак: Месть смотреть онлайн бесплатно в хорошем качестве


Вы не можете начинать темы
Вы не можете отвечать на сообщения
Вы не можете редактировать свои сообщения
Вы не можете удалять свои сообщения
Вы не можете голосовать в опросах
Вы не можете прикреплять файлы к сообщениям
Вы можете скачивать файлы