1 сезон

1 сезон

iTunes

1

КиноПоиск HD

Кинопоиск HD

iTunes

13

1 сезон

RePack

30

Ultimate

ВАЖНО

ИГРА 18+

pack

RePack

MK11
pack

Легкие деньги

RePack

jed

RePack

fifa19

RePack

RDR2

RePack

NEED FOR SPEED™ PAYBACK

4 сезон

9 сезон

Бесстыжие 9 сезон

Все сериалы

все сериалы на PB.wtf

RePack

FAR CRY 5
  
Magnet ссылка

Приключения волшебного гуся / Goose on the Loose (Николас Кендалл) [2004 г., комедия, семейный, DVDRip] pb.wtf

Приключения волшебного гуся через торрент pb.wtf

Размер: 1.09 GB | Добавлен: 9 лет 2 мес. назад | Торрент скачан:31 раз
Скачать  

31-01-2012 19:23 Приключения волшебного гуся Скачать торрент  

Приключения волшебного гуся / Goose on the Loose

Год выпуска: 2004
Страна: Канада
Жанр: комедия, семейный
Продолжительность: 01:22:53
Перевод: Профессиональный (двухголосый, закадровый)

Режиссер: Николас Кендалл
Продюссер: Колин Нил, Алекс Браун
Сценарий: Чарльз Дэннис

Рейтинг PG



В ролях: Чеви Чейз, Кэри Матчетт, Джеймс Пьюрфой, Джоан Плаурайт, Макс Морроу, Изабелла Финк, Чейен Хилл, Оливия Ченг, Уильям Б. Дэвис

Описание: История о маленьком мальчике, после смерти матери потерявшего дар речи. Однажды он узнаёт, что директор школы готовится принять участие в рождественском конкурсе кулинаров. Огромного гуся, который мирно прогуливается на школьном дворе, директор откармливает именно с этой целью. И вот наш герой и его друзья разрабатывают план спасения ни в чём неповинной птицы.

Качество: DVDRip
Формат: AVI
Видео кодек: XviD
Аудио кодек: AC3
Видео: 704x512 (1.38:1), 25 fps, XviD MPEG-4 ~1494 kbps avg, 0.17 bit/pixel
Аудио#1: 48 kHz, AC3 Dolby Digital, 3/2 (L,C,R,l,r) + LFE ch, ~384 kbps
Общее
Полное имя : C:\Priklychenija.volshebnogo.gusja.2006.XviD.DVDRip.avi
Формат : AVI
Формат/Информация : Audio Video Interleave
Размер файла : 1,09 Гбайт
Продолжительность : 1 ч. 22 м.
Общий поток : 1887 Кбит/сек
Программа кодирования : VirtualDubMod 1.5.10.2 (build 2542/release)
Библиотека кодирования : VirtualDubMod build 2542/release
Видео
Идентификатор : 0
Формат : MPEG-4 Visual
Профиль формата : Advanced Simple@L5
Параметр BVOP формата : Да
Параметр QPel формата : Нет
Параметр GMC формата : Без точки перехода
Параметр матрицы формата : Default (MPEG)
Режим смешивания : Сжатый битовый поток
Идентификатор кодека : XVID
Идентификатор кодека/Подсказка : XviD
Продолжительность : 1 ч. 22 м.
Битрейт : 1494 Кбит/сек
Ширина : 704 пикс.
Высота : 512 пикс.
Соотношение сторон : 1,375
Частота кадров : 25,000 кадр/сек
Цветовое пространство : YUV
Подвыборка цветности : 4:2:0
Битовая глубина : 8 бит
Тип развёртки : Прогрессивная
Метод сжатия : С потерями
Бит/(Пиксели*Кадры) : 0.166
Размер потока : 885 Мбайт (79%)
Библиотека кодирования : XviD 1.2.0.dev47 (UTC 2006-11-01)
Аудио
Идентификатор : 1
Формат : AC-3
Формат/Информация : Audio Coding 3
Расширение режима : CM (complete main)
Идентификатор кодека : 2000
Продолжительность : 1 ч. 22 м.
Вид битрейта : Постоянный
Битрейт : 384 Кбит/сек
Канал(ы) : 6 канала(ов)
Расположение каналов : Front: L C R, Side: L R, LFE
Частота : 48,0 КГц
Битовая глубина : 16 бит
Метод сжатия : С потерями
Размер потока : 228 Мбайт (20%)
Выравнивание : Разделение по промежуткам
Продолжительность промежутка : 40 мс. (1,00 видеокадр)
Время предзагрузки промежутка : 500 ms









pb.wtf



Скачать Приключения волшебного гуся через торрент http://pic.powertracker.org/relwiz/422881/120131205223422881_f0_0.png Скачать фильм Приключения волшебного гуся через торрент бесплантно в хорошем качестве Описание: История о маленьком мальчике, после смерти матери потерявшего дар речи. Однажды он узнаёт, что директор школы готовится принять ... 5 10 4
Info! Золотая раздача, скачанное не засчитывается.
Торрент: Зарегистрирован [2012-01-31 19:23] · скачан: 31 раз
Статус: T временная
Размер: 1.09 GB
Как cкачать? Как скачать Приключения волшебного гуся через торрент | UTorrent

28-11-2019 20:33  

Отключить всю рекламу на сайте

    Дорогой пользователь! Огромная просьба, поблагодарите релизера, оцените раздачу и оставьте свои комментарий, если Вы скачали Приключения волшебного гуся через торрент бесплатно! Внесите свою лепту в развитие PiratBit!
    Комментировать посты могут только пользователи прошедшие не сложную регистрацию
    Показать сообщения:    

    Приключения волшебного гуся через торрент
    Скачать бесплатно Приключения волшебного гуся
    Приключения волшебного гуся скачать торрент
    Приключения волшебного гуся смотреть онлайн
    Cкачать фильм Приключения волшебного гуся бесплатно
    Приключения волшебного гуся скачать торрент в хорошем качестве
    Приключения волшебного гуся смотреть онлайн бесплатно в хорошем качестве


    Вы не можете начинать темы
    Вы не можете отвечать на сообщения
    Вы не можете редактировать свои сообщения
    Вы не можете удалять свои сообщения
    Вы не можете голосовать в опросах
    Вы не можете прикреплять файлы к сообщениям
    Вы можете скачивать файлы