1 сезон

3 сезон

iTunes

1

Line

MVO

iTunes

13

1 сезон

RePack

30

Deluxe

pack

Лицензия

ВАЖНО

ИГРА 18+

pack

RePack

MK11

RePack

jed

RePack

fifa19

RePack

RDR2

RePack

NEED FOR SPEED™ PAYBACK

4 сезон

9 сезон

Бесстыжие 9 сезон

Все сериалы

все сериалы на PB.wtf

RePack

FAR CRY 5

Anonymous, доброй ночи, мы катастрофически не успеваем собрать деньги на оплату серверов, помогите нам пожалуйста 5,10,15р., для нас важна любая помощь . В качестве благодарности мы отключим Вам всю рекламу на сайте (укажите свой ник в строку Ваше имя)!

×
  
Magnet ссылка

Город в огне / Urban Warfare (Вейн Роуз, Киони Ваксман, Лауро Чартрэнд / Wayne Rose, Kioni Waxman, Laura Chartrend) [2011, боевик, триллер, драма, DVD5] R5 pb.wtf

Город в огне через торрент pb.wtf

Размер: 3.9 GB | Добавлен: 9 лет 5 мес. назад | Торрент скачан:83 раза
Скачать  

31-01-2012 21:38 Город в огне Скачать торрент  

[font="Georgia"]
Город в огне / Urban Warfare
«Some lines should never be crossed.»
Страна: США, Канада
Студия: True Justice 1 Productions, Voltage Pictures
Жанр: боевик, триллер, драма
Год выпуска: 2011
Мировая премьера: 5 августа 2011
Дата выхода DVD: 26 января 2012
Продолжительность: 01:26:55
Перевод: Профессиональный (многоголосый закадровый) [Лицензия]
Cубтитры: нет
Оригинальная аудиодорожка: английский
Режиссер: Вейн Роуз, Киони Ваксман, Лауро Чартрэнд / Wayne Rose, Kioni Waxman, Laura Chartrend
В ролях: Стивен Сигал, Алекс Маллари мл., Джоуз Исо Пена, Стюарт Уильям Биг Слипс, Кайл Кэсси, Майкл Эклунд, Марина Ева, Питер Грэхэм-Годрэу, Сара Линд, Джим Торберн
Описание: Быть копом нелегко, и в этом не раз убеждался бывалый детектив Элайя Кейн, повидавший на своём веку немало драк, перестрелок, локальных войн и жестоких схваток. В этом он уверяет и свой отряд полицейских-коллег и напарников, большинство из которых являются совсем зелёными новичками. Однако, жизнь на улицах города является столь же непростой, сколь и опасной, поэтому блюстители закона и охранники правопорядка вынуждены день за днём пресекать правонарушения и предотвращать преступления, ловить бандитов и арестовывать наркоторговцев.
Опытный Элайя во всём помогает и способствует юным законникам, а также вразумляет и наставляет их на путь праведный. Постепенно улицы очищаются от маргинальных нечистот и презирающих закон лиц, но всё новые проблемы и неприятности дают знать, что южному правосудию не быть невостребованным. Элайя Кейн и его верная команда помощников ни на шаг не отступят от своего, продолжая лоббировать букву закона повсеместно и там, где, кажется, её не уважают и вовсе не признают. Они непременно добьются, чтобы все и каждый чтили, понимали и принимали Закон в его истинном проявлении. Ведь это та самая Южная справедливость, всегда одерживающая верх и постоянно побеждающая, в чём сомневаться практически бесполезно…

Бонусы: нет

Качество: DVD5 R5
Формат: DVD-Video
Видео кодек: MPEG2
Аудио кодек: AC3
Видео: PAL 16:9 (720x576(0.517)) MPEG Video, 25,000 кадр/сек, 5358 Кбит/сек
Аудио #1: Russian (Dolby AC3, 6 ch) 384 Кбит/сек, 48,0 КГц
Аудио #2: English (Dolby AC3, 6 ch) 384 Кбит/сек, 48,0 КГц



Title:
Size: 3.90 Gb ( 4 084 706 KBytes ) - DVD-5
Enabled regions: 1, 2, 3, 4, 5, 6, 7, 8

VTS_01 :
Play Length: 01:26:55
Video: PAL 16:9 (720x576) VBR, Auto Pan&Scan, Auto Letterboxed
Audio:
Russian (Dolby AC3, 6 ch)
English (Dolby AC3, 6 ch)

Menu Video:
PAL 16:9 (720x576) VBR
Auto Letterboxed
Menu Audio:
Not specified (Dolby AC3, 2 ch)
Menu Subtitles:
Not specified
Menu English Language Unit :
Root Menu
Общее
Полное имя : G:\Новинки 2012\Gorod.v.ogne.2011.DVD5\VIDEO_TS\VTS_01_1.VOB
Формат : MPEG-PS
Размер файла : 1024 Мбайт
Продолжительность : 22 м.
Режим общего битрейта : Переменный
Общий поток : 6250 Кбит/сек

Видео
Идентификатор : 224 (0xE0)
Формат : MPEG Video
Версия формата : Version 2
Профиль формата : Main@Main
Параметр BVOP формата : Да
Параметр матрицы формата : Выборочная
Продолжительность : 22 м.
Вид битрейта : Переменный
Битрейт : 5358 Кбит/сек
Максимальный битрейт : 7000 Кбит/сек
Ширина : 720 пикселей
Высота : 576 пикселей
Соотношение сторон : 16:9
Частота кадров : 25,000 кадров/сек
Стандарт вещания : PAL
Цветовое пространство : YUV
Субдискретизация насыщенности : 4:2:0
Битовая глубина : 8 бит
Тип развёртки : Чересстрочная
Порядок развёртки : Верхнее поле первое
Метод сжатия : С потерями
Бит/(Пиксели*Кадры) : 0.517
Размер потока : 878 Мбайт (86%)

Аудио #1
Идентификатор : 189 (0xBD)-128 (0x80)
Формат : AC-3
Формат/Информация : Audio Coding 3
Расширение режима : CM (complete main)
Режим смешивания : DVD-Video
Продолжительность : 22 м.
Вид битрейта : Постоянный
Битрейт : 384 Кбит/сек
Каналы : 6 каналов
Расположение каналов : Front: L C R, Side: L R, LFE
Частота : 48,0 КГц
Битовая глубина : 16 бит
Метод сжатия : С потерями
Размер потока : 62,9 Мбайт (6%)

Аудио #2
Идентификатор : 189 (0xBD)-129 (0x81)
Формат : AC-3
Формат/Информация : Audio Coding 3
Расширение режима : CM (complete main)
Режим смешивания : DVD-Video
Продолжительность : 22 м.
Вид битрейта : Постоянный
Битрейт : 384 Кбит/сек
Каналы : 6 каналов
Расположение каналов : Front: L C R, Side: L R, LFE
Частота : 48,0 КГц
Битовая глубина : 16 бит
Метод сжатия : С потерями
Размер потока : 62,9 Мбайт (6%)










pb.wtf



Скачать Город в огне через торрент http://i1.imageban.ru/out/2012/02/01/0e19670167118b90941e9d265f3595c2.jpg Скачать фильм Город в огне через торрент бесплантно в хорошем качестве Описание: Быть копом нелегко, и в этом не раз убеждался бывалый детектив Элайя Кейн, повидавший на своём веку немало драк, перестрелок, ... 4.8 10 6
Info! Золотая раздача, скачанное не засчитывается.
Торрент: Зарегистрирован [2012-01-31 21:38] · скачан: 83 раз
Статус: √ проверено
Размер: 3.9 GB
Как cкачать? Как скачать Город в огне через торрент | UTorrent

28-11-2019 20:33  

Отключить всю рекламу на сайте

    Дорогой пользователь! Огромная просьба, поблагодарите релизера, оцените раздачу и оставьте свои комментарий, если Вы скачали Город в огне через торрент бесплатно! Внесите свою лепту в развитие PiratBit!
    Комментировать посты могут только пользователи прошедшие не сложную регистрацию
    Показать сообщения:    

    Город в огне через торрент
    Скачать бесплатно Город в огне
    Город в огне скачать торрент
    Город в огне смотреть онлайн
    Cкачать фильм Город в огне бесплатно
    Город в огне скачать торрент в хорошем качестве
    Город в огне смотреть онлайн бесплатно в хорошем качестве


    Вы не можете начинать темы
    Вы не можете отвечать на сообщения
    Вы не можете редактировать свои сообщения
    Вы не можете удалять свои сообщения
    Вы не можете голосовать в опросах
    Вы не можете прикреплять файлы к сообщениям
    Вы можете скачивать файлы