1 сезон

3 сезон

iTunes

1

Line

MVO

iTunes

13

1 сезон

RePack

30

Deluxe

pack

Лицензия

ВАЖНО

ИГРА 18+

pack

RePack

MK11

RePack

jed

RePack

fifa19

RePack

RDR2

RePack

NEED FOR SPEED™ PAYBACK

4 сезон

9 сезон

Бесстыжие 9 сезон

Все сериалы

все сериалы на PB.wtf

RePack

FAR CRY 5

Anonymous, добрый вечер, мы катастрофически не успеваем собрать деньги на оплату серверов, помогите нам пожалуйста 5,10,15р., для нас важна любая помощь . В качестве благодарности мы отключим Вам всю рекламу на сайте (укажите свой ник в строку Ваше имя)!

×
  
Magnet ссылка

Грибы 3D / One Way Trip 3D (Маркус Вельтер / Markus Welter) [2011, ужасы, DVD9] R5 pb.wtf

Грибы 3D через торрент pb.wtf

Размер: 7.25 GB | Добавлен: 9 лет 5 мес. назад | Торрент скачан:127 раз
Скачать  

01-02-2012 15:58 Грибы 3D Скачать торрент  

[font="Georgia"]
Грибы 3D / One Way Trip 3D
«Потеря контроля - это только начало»
Страна: Швейцария, Австрия
Студия: HesseGreutert Film AG, Superfilm
Жанр: ужасы
Мировая премьера: 6 сентября 2011
Российская премьера: 1 декабря 2011 3D
Дата выхода DVD: 26 января 2012
Дата выхода Blu-Ray: 2 февраля 2012
Год выпуска: 2011
Продолжительность: 01:25:45
Перевод: Профессиональный (дублированный) [Лицензия]
Cубтитры: нет
Режиссер: Маркус Вельтер / Markus Welter
В ролях: Сабрина Рейтер, Мелани Винигер, Херберт Лайзер, Мартин Лус, Аарон Хиц, Маттиас Бритшджи, Саймон Кэсер, Изабелль Барт, Гарри Лампль, Таня Рауниг.
Описание: В центре событий группа молодых людей отправившихся в лес на поиски галлюциногенных грибов. Добравшись до места, они начинают сбор грибов, а вечером решают немного оттянуться. Веселье заканчивается, когда один из ребят, отлучившийся за пивом, возвращается с разбитым в кровь лицом. Что с ним случилось, он понятия не имеет. Ребята решают срочно уйти из леса, но обнаруживают, что их машина кем-то сломана, а телефоны не работают. Они решают искать помощи на ближайшей ферме, которую они приметили по дороге в лес. Но туда не стоило идти. Неизвестные охотники начинают убивать ребят одного за другим…
Бонусы: нет

Сэмпл 2D Сэмпл 3D
Качество: DVD9 R5
Формат: DVD-Video
Видео кодек: MPEG2
Аудио кодек: AC3
Видео: PAL 16:9 (720x576(0.441)) MPEG Video, 25,000 кадр/сек, 4570 Кбит/сек
Аудио: Russian (Dolby AC3, 6 ch) 448 Кбит/сек, 48,0 КГц



Title:
Size: 7.25 Gb ( 7 607 362 KBytes ) - DVD-9
Enabled regions: 1, 2, 3, 4, 5, 6, 7, 8

VTS_01 :
Play Length: 00:00:16
Video: PAL 16:9 (720x576) VBR, Auto Pan&Scan
Audio:
Russian (Dolby AC3, 2 ch)

VTS_02 :
Play Length: 01:25:45
Video: PAL 16:9 (720x576) VBR, Auto Pan&Scan
Audio:
Russian (Dolby AC3, 6 ch)

VTS_03 :
Play Length: 01:25:45
Video: PAL 16:9 (720x576) VBR, Auto Pan&Scan
Audio:
Russian (Dolby AC3, 6 ch)

Menu Video:
PAL 16:9 (720x576) VBR
Auto Pan&Scan
Menu Audio:
Not specified (Dolby AC3, 2 ch)
Menu Subtitles:
Not specified
Menu Russian Language Unit :
Root Menu
Chapter (PTT) Menu
Общее
Полное имя : G:\Новинки 2012\Griby.3D.2011.DVD9\VIDEO_TS\VTS_02_3.VOB
Формат : MPEG-PS
Размер файла : 1024 Мбайт
Продолжительность : 27 м.
Режим общего битрейта : Переменный
Общий поток : 5120 Кбит/сек

Видео
Идентификатор : 224 (0xE0)
Формат : MPEG Video
Версия формата : Version 2
Профиль формата : Main@Main
Параметр BVOP формата : Да
Параметр матрицы формата : Выборочная
Параметр GOP формата : M=3, N=15
Продолжительность : 27 м.
Вид битрейта : Переменный
Битрейт : 4570 Кбит/сек
Максимальный битрейт : 8500 Кбит/сек
Ширина : 720 пикселей
Высота : 576 пикселей
Соотношение сторон : 16:9
Частота кадров : 25,000 кадров/сек
Стандарт вещания : PAL
Цветовое пространство : YUV
Субдискретизация насыщенности : 4:2:0
Битовая глубина : 8 бит
Тип развёртки : Прогрессивная
Метод сжатия : С потерями
Бит/(Пиксели*Кадры) : 0.441
Размер потока : 914 Мбайт (89%)

Аудио
Идентификатор : 189 (0xBD)-128 (0x80)
Формат : AC-3
Формат/Информация : Audio Coding 3
Расширение режима : CM (complete main)
Режим смешивания : DVD-Video
Продолжительность : 27 м.
Вид битрейта : Постоянный
Битрейт : 448 Кбит/сек
Каналы : 6 каналов
Расположение каналов : Front: L C R, Side: L R, LFE
Частота : 48,0 КГц
Битовая глубина : 16 бит
Метод сжатия : С потерями
Задержка видео : -304 мс.
Размер потока : 89,6 Мбайт (9%)










pb.wtf



Скачать Грибы 3D через торрент http://i2.imageban.ru/out/2012/02/01/0344eda783879d213eecde3e15b6e9cd.jpg Скачать фильм Грибы 3D через торрент бесплантно в хорошем качестве Описание: В центре событий группа молодых людей отправившихся в лес на поиски галлюциногенных грибов. Добравшись до места, они начинают ... 10 10 1
Info! Золотая раздача, скачанное не засчитывается.
Торрент: Зарегистрирован [2012-02-01 15:58] · скачан: 127 раз
Статус: √ проверено
Размер: 7.25 GB
Как cкачать? Как скачать Грибы 3D через торрент | UTorrent

28-11-2019 20:33  

Отключить всю рекламу на сайте

01-02-2012 16:16 Грибы 3D Скачать торрент  

С грибами всё 3d версииpb.wtf



01-02-2012 16:24 Грибы 3D Скачать торрент  

Я вот недавно мухомор съел, так меня в 4D унеслоpb.wtf



01-02-2012 16:38 Грибы 3D Скачать торрент  

наркоман штоле?pb.wtf



01-02-2012 17:34 Грибы 3D Скачать торрент  

рип есть?)pb.wtf



01-02-2012 18:50 Грибы 3D Скачать торрент  

b0r писал(а):

рип есть?)

пользуйтесь поиском
http://pb.wtf/viewtopic.php?t=71400pb.wtf



02-02-2012 17:13 Грибы 3D Скачать торрент  

фильм понос!!!!!!!!!!!!!!!!!!!!!!!!!!!!!!!!!!!!!!!!!!!!!pb.wtf



    Дорогой пользователь! Огромная просьба, поблагодарите релизера, оцените раздачу и оставьте свои комментарий, если Вы скачали Грибы 3D через торрент бесплатно! Внесите свою лепту в развитие PiratBit!
    Комментировать посты могут только пользователи прошедшие не сложную регистрацию
    Показать сообщения:    

    Грибы 3D через торрент
    Скачать бесплатно Грибы 3D
    Грибы 3D скачать торрент
    Грибы 3D смотреть онлайн
    Cкачать фильм Грибы 3D бесплатно
    Грибы 3D скачать торрент в хорошем качестве
    Грибы 3D смотреть онлайн бесплатно в хорошем качестве


    Вы не можете начинать темы
    Вы не можете отвечать на сообщения
    Вы не можете редактировать свои сообщения
    Вы не можете удалять свои сообщения
    Вы не можете голосовать в опросах
    Вы не можете прикреплять файлы к сообщениям
    Вы можете скачивать файлы