1 сезон

1 сезон

iTunes

1

КиноПоиск HD

Кинопоиск HD

iTunes

13

1 сезон

RePack

30

Новинка

ВАЖНО

ИГРА 18+

pack

RePack

MK11
pack

Легкие деньги

RePack

jed

RePack

fifa19

RePack

RDR2

RePack

NEED FOR SPEED™ PAYBACK

4 сезон

9 сезон

Бесстыжие 9 сезон

Все сериалы

все сериалы на PB.wtf

RePack

FAR CRY 5
  
Magnet ссылка

Плохая компания / Bad Company (Джоэл Шумахер) [2002 г., Боевик, комедия, DVDRip-AVC] pb.wtf

Плохая компания через торрент pb.wtf

Размер: 2.14 GB | Добавлен: 9 лет 2 мес. назад | Торрент скачан:209 раз
Скачать  

02-02-2012 21:37 Плохая компания Скачать торрент  

Плохая компания / Bad Company

Год выпуска: 2002
Страна: США
Жанр: Боевик, комедия
Продолжительность: 1 ч. 51 м.
Перевод: Профессиональный (полное дублирование)

Режиссер: Джоэл Шумахер
Продюссер: Джерри Брукхаймер, Майк Стенсон
Сценарий: Джэйсон Ричман, Майкл Браунинг

Бюджет: 70 млн долл.
Премьера в мире: 7 июня 2002 года

В ролях: Энтони Хопкинс- Офицер Оукс
Крис Рок- Джейк Хейс / Кевин Поуп / Майкл Тёрнер
Петер Стормаре- Адрик Вас
Габриэль Мачт- Офицер Сил
Керри Уашингтон- Джули
Адони Маропис - Прихвостень Джармы / Драгана #1
Гарcелл Бьювэйс- Николь
Мэтью Марш- Драган Адджаник
Драган Миканович Мишель- «Молот» Петров
Джон Слаттери- Роланд Ятс
Брук Смит- Офицер Суансон
Дэниел Санджата- Офицер Кэрью
ДеВоун Лоусон- Офицер Париш
Уиллс Роббинс- Офицер Маккэйн
Марек Вазут- Андре

Описание: Агент ЦРУ Кевин Поуп получает задание выкупить украденный чемодан с бомбой, но погибает. Поуп работал тайно как торговец произведениями искусства под именем Майкл Тёрнер. ЦРУ, любой ценой пытающееся выполнить задачу, выясняет, что у Агента Поупа есть брат-близнец, Джейк Хейс (Рок), и они были разлучены при рождении. Хейс гоняет в шахматы, спекулирует билетами и работает в маленьких клубах, еле-еле сводя концы с концами. Тем временем его подруга, Джули (Вашингтон) устаёт ждать, когда он повзрослеет, и решает переехать в Сиэтл, штат Вашингтон.

Когда ЦРУ начинает обучать Хейса, чтоб тот выполнил миссию в Праге (Чехия) и его недостатки поначалу тревожат их. Агент Оукс (Хопкинс) упрашивает Хейса и говорит, что тот не доверяет ему. Когда Хейс начинает прислушиваться, ЦРУ устраивает его в старой квартире, чтобы проверить и попробовать заманить тех, кто убил его брата. На Хейса нападают, но он убегает целым и невредимым. В поисках выхода из ситуации, Хейс приходит к своей приёмной матери, а Оукс идёт следом и убеждает его закончить миссию.

После прибытия в Прагу, Хейс встречается с людьми, продающими бомбу в чемоданчике, изображая из себя своего усопшего брата. Продавец Адрик Вас — бывший агент КГБ со связями с русской мафией. Когда они возвращаются в гостиницу, Хейс встречает бывшую подругу своего брата Николь, которая работает репортёром CNN на Балканах. Полагая, что Хейс — его брат, эти двое вместе ужинают и по возвращении в отель попадают в засаду, устроенную покупателями-конкурентами. Николь узнает, что Хейс — не его брат.

Действуя по плану, Хейс и Оукс встречаются с Адджаником, чтобы взять коды. Но перед самым закрытием сделки люди Васа убивают его, перейдя на сторону покупателя-конкурента и террориста. Когда конкурирующие дилеры, являющиеся частью террористической организации, узнают, что не могут взорвать бомбу из-за отсутствия доступа к компьютеру, они похищают Джули. Хейс выдаёт себя, пытаясь сохранить жизнь своей девушке, а террорист получает доступ и вооружает бомбу.

Теперь начинается гонка за Хейсом и бомбой. По номеру телефона одного из террористов они узнают, что бомба на Главной Центральной Станции. По тиканью часов они определяют местонахождение бомбы и Андре, который запустил обратный отсчёт. Оукс спасает Хейса, уничтожив двух террористов. Когда Хейс начинает вводить коды разоружения бомбы, приходит Андре, держа Джули в заложниках. Чтобы отвлечь Андре, Хейс стреляет в Оукса, а тот убивает Андре. Хейс останавливает бомбу за 12 сек до взрыва.

Доп. информация: Детям просмотр рекомендован с 13 лет и вместе с родителями.

Качество: DVDRip-AVC
Формат: AVC
Видео кодек: MPEG4
Аудио кодек: (Русский) AC3
Видео: MPEG-4 AVC, 2356 Кбит/с, 1024x440, 25 кадров/сек
Аудио#1: Русский (AC3, 6 ch, 384 Кбит/с) 48,0КГц




Формат : Matroska
Версия формата : Version 2
Размер файла : 2,14 Гбайт
Продолжительность : 1 ч. 51 м.
Общий поток : 2741 Кбит/сек
Дата кодирования : UTC 2012-01-18 19:52:30
Программа кодирования : mkvmerge v3.3.0 ('Language') built on Mar 24 2010 14:59:24
Библиотека кодирования : libebml v0.8.0 + libmatroska v0.9.0

Видео
Идентификатор : 1
Формат : AVC
Формат/Информация : Advanced Video Codec
Профиль формата : High@L3.1
Параметр CABAC формата : Да
Параметр ReFrames формата : 5 кадров
Идентификатор кодека : V_MPEG4/ISO/AVC
Продолжительность : 1 ч. 51 м.
Битрейт : 2356 Кбит/сек
Ширина : 1024 пикселя
Высота : 440 пикселей
Соотношение сторон : 2,35:1
Частота кадров : 25,000 кадров/сек
Цветовое пространство : YUV
Субдискретизация насыщенности : 4:2:0
Битовая глубина : 8 бит
Тип развёртки : MBAFF
Бит/(Пиксели*Кадры) : 0.209
Размер потока : 1,80 Гбайт (84%)
Библиотека кодирования : x264 core 92 r1510 33d382a
Настройки программы : cabac=1 / ref=5 / deblock=1:-1:-1 / analyse=0x3:0x133 / me=umh / subme=7 / psy=1 / psy_rd=1.00:0.20 / mixed_ref=1 / me_range=16 / chroma_me=1 / trellis=2 / 8x8dct=1 / cqm=0 / deadzone=21,11 / fast_pskip=0 / chroma_qp_offset=-3 / threads=6 / sliced_threads=0 / nr=0 / decimate=0 / interlaced=tff / constrained_intra=0 / bframes=3 / b_pyramid=2 / b_adapt=2 / b_bias=0 / direct=3 / wpredb=1 / wpredp=0 / keyint=250 / keyint_min=25 / scenecut=40 / intra_refresh=0 / rc_lookahead=50 / rc=2pass / mbtree=1 / bitrate=2356 / ratetol=1.0 / qcomp=0.60 / qpmin=10 / qpmax=51 / qpstep=4 / cplxblur=20.0 / qblur=0.5 / ip_ratio=1.40 / aq=1:1.00
Default : Да
Forced : Нет

Аудио
Идентификатор : 2
Формат : AC-3
Формат/Информация : Audio Coding 3
Расширение режима : CM (complete main)
Идентификатор кодека : A_AC3
Продолжительность : 1 ч. 51 м.
Вид битрейта : Постоянный
Битрейт : 384 Кбит/сек
Каналы : 6 каналов
Расположение каналов : Front: L C R, Side: L R, LFE
Частота : 48,0 КГц
Битовая глубина : 16 бит
Метод сжатия : С потерями
Размер потока : 307 Мбайт (14%)
Default : Да
Forced : Нет

pb.wtf



Скачать Плохая компания через торрент http://www.okladki-divx.neostrada.pl/covers/b/bad_company.jpg Скачать фильм Плохая компания через торрент бесплантно в хорошем качестве Описание: Агент ЦРУ Кевин Поуп получает задание выкупить украденный чемодан с бомбой, но погибает. Поуп работал тайно как торговец ... 10 10 2
Info! Золотая раздача, скачанное не засчитывается.
Торрент: Зарегистрирован [2012-02-02 21:37] · скачан: 209 раз
Статус: √ проверено
Размер: 2.14 GB
Как cкачать? Как скачать Плохая компания через торрент | UTorrent

% Раздел Тема Автор DL S | L
Классика зарубежного кино [ 9.67 GB ] Плохая компания / Bad Company [1972 WEBRip 1080p] 2x [MVO] killermax2013 Скачать
1 | 0
T Фильмы (мультфильмы) cо спонсором показа (Новинки AVI/MKV) [ 1.37 GB ] Плохая компания / Bad Company [2018 WEB-DLRip] MVO ["Синема УС"] bober100 Скачать
2 | 0
T Фильмы (мультфильмы) cо спонсором показа (Новинки AVI/MKV) [ 3.77 GB ] Плохая компания / Bad Company [2018 WEB-DL 720p] MVO ["Синема УС"] bober100 Скачать
1 | 0
Фильмы [HD 720p, 1080p] (Хороший звук DUB, MVO) [ 11.62 GB ] Плохая компания / Bad Company [1995 BDRip 1080p by msltel] MVO AVO msltel Скачать
1 | 0
Фильмы [HD 720p, 1080p] (Хороший звук DUB, MVO) [ 4.18 GB ] Плохая компания / Bad Company [1995 BDRip 720p by msltel] MVO AVO msltel Скачать
1 | 0
T Фильмы 2001-2005 [ 2.09 GB ] Плохая компания / Bad Company [2002 WEBRip] [Open Matte] [MVO] + + [AVO] killermax2013 Скачать
1 | 0
Фильмы (WEB-DL 720p, 1080p) [ 8.67 GB ] Плохая компания / Bad Company [2001 HDTVRip DUB лицензия] AlexKa Скачать
1 | 0

28-11-2019 20:33  

Отключить всю рекламу на сайте

    Дорогой пользователь! Огромная просьба, поблагодарите релизера, оцените раздачу и оставьте свои комментарий, если Вы скачали Плохая компания через торрент бесплатно! Внесите свою лепту в развитие PiratBit!
    Комментировать посты могут только пользователи прошедшие не сложную регистрацию
    Показать сообщения:    

    Плохая компания через торрент
    Скачать бесплатно Плохая компания
    Плохая компания скачать торрент
    Плохая компания смотреть онлайн
    Cкачать фильм Плохая компания бесплатно
    Плохая компания скачать торрент в хорошем качестве
    Плохая компания смотреть онлайн бесплатно в хорошем качестве


    Вы не можете начинать темы
    Вы не можете отвечать на сообщения
    Вы не можете редактировать свои сообщения
    Вы не можете удалять свои сообщения
    Вы не можете голосовать в опросах
    Вы не можете прикреплять файлы к сообщениям
    Вы можете скачивать файлы