MEGA NEWS Получи личный уникальный адрес сайта и защити себя от блокировок. Внимание количество ограничено!!!

iTunes

1+1

iTunes

мы

iTunes

1

iTunes

Чернобыль

iTunes

Ральф против интернета

Лицензия

ПШазам

Лицензия

Игра престолов

Лицензия

30
pack

ВАЖНО

!!Акция!!

Alien_RageХит недели

RePack

Resident Evil 21

ИГРА 18+

pack

RePack

Metro:Exodus

!!Акция!!

Alien_Rage

RePack

fifa19

RePack

Assassins Creed: Odyssey

RePack

NEED FOR SPEED™ PAYBACK

3 сезон

9 сезон

Бесстыжие 9 сезон

Все сериалы

все сериалы на PB.wtf

RePack

FAR CRY 5
Ребята, катастрофически не хватает 1900р. для оплаты серверов за АВГУСТ (всвязи с блокировками трафик упал в 3 раза), 1-2р., выручайте.
  

Груз 200 (Алексей Балабанов) [2007, Россия, триллер, драма, BDRip 1080p] sub Rus/Eng pb.wtf

Груз 200 через торрент pb.wtf

Размер: 8.42 GB | Добавлен: 7 лет 8 мес. назад | Торрент скачан:468 раз
Скачать  

03-02-2012 09:22 Груз 200 Скачать торрент  

[font="Georgia"]Груз 200
Страна: Россия
Жанр: Триллер, драма
Год выпуска: 2007
Продолжительность: 01:29:16
Cубтитры: есть
Оригинальная аудиодорожка: Русский

Режиссер: Алексей Балабанов

В ролях: Агния Кузнецова, Алексей Полуян, Леонид Громов, Алексей Серебряков, Леонид Бичевин, Наталья Акимова, Юрий Степанов, Михаил Скрябин, Сергей Александров, Валентина Андрюкова, Константин Балакирев, Александр Баширов, Алена Фалалеева, Юлия Глазунова, Дмитрий Карпов, Марина Королькова, Игорь Малухин, Ляля Миропольская, Андрей Мокеев, Александр Мосин, Анжелика Неволина

Описание: СССР. 1984 год. Финал советской эпохи. Провинция. После дискотеки пропадает дочь секретаря райкома партии. Свидетелей нет. Виновные не обнаружены. В этот же вечер в доме на окраине города происходит жестокое убийство. Виновный — хозяин дома. Оба расследования поручены капитану милиции Журову…
Релиз от:

rip by genkasper
[font="Georgia"]Сэмпл
Тип релиза: BDRip 1080p
Контейнер: MKV
Видео: AVC / 12000 kbps / 1920x1080p / 23,976 fps / High@L4.1
Аудио : DTS 5.1 / 48 kHz / 1510 kbps / 24-bit)
Субтитры: (SRT) русские, английские
Полное имя : Gruz.200.2007.BDRip.1080p.by_genkasper.mkv
Формат : Matroska
Версия формата : Version 2
Размер файла : 8,42 Гбайт
Продолжительность : 1 ч. 29 м.
Общий поток : 13,5 Мбит/сек
Дата кодирования : UTC 2012-02-03 09:06:25
Программа кодирования : mkvmerge v5.2.1 ('A Far Off Place') built on Jan 2 2012 23:21:10
Библиотека кодирования : libebml v1.2.3 + libmatroska v1.3.0

Видео
Идентификатор : 1
Формат : AVC
Формат/Информация : Advanced Video Codec
Профиль формата : High@L4.1
Параметр CABAC формата : Да
Параметр ReFrames формата : 4 кадра
Идентификатор кодека : V_MPEG4/ISO/AVC
Продолжительность : 1 ч. 29 м.
Битрейт : 12,0 Мбит/сек
Ширина : 1920 пикселей
Высота : 1080 пикселей
Соотношение сторон : 16:9
Частота кадров : 23,976 кадра/сек
Цветовое пространство : YUV
Субдискретизация насыщенности : 4:2:0
Битовая глубина : 8 бит
Тип развёртки : Прогрессивная
Бит/(Пиксели*Кадры) : 0.241
Размер потока : 7,31 Гбайт (87%)
Библиотека кодирования : x264 core 115 r1936 7a9e08d
Настройки программы : cabac=1 / ref=4 / deblock=1:-1:-1 / analyse=0x3:0x133 / me=umh / subme=10 / psy=1 / psy_rd=1.00:0.10 / mixed_ref=1 / me_range=24 / chroma_me=1 / trellis=2 / 8x8dct=1 / cqm=0 / deadzone=21,11 / fast_pskip=0 / chroma_qp_offset=-3 / threads=9 / sliced_threads=0 / nr=0 / decimate=1 / interlaced=0 / bluray_compat=0 / constrained_intra=0 / bframes=10 / b_pyramid=2 / b_adapt=2 / b_bias=0 / direct=3 / weightb=1 / open_gop=0 / weightp=2 / keyint=250 / keyint_min=23 / scenecut=40 / intra_refresh=0 / rc_lookahead=50 / rc=2pass / mbtree=1 / bitrate=12000 / ratetol=1.0 / qcomp=0.70 / qpmin=0 / qpmax=69 / qpstep=4 / cplxblur=20.0 / qblur=0.5 / ip_ratio=1.40 / aq=1:1.00
Язык : English

Аудио
Идентификатор : 2
Формат : DTS
Формат/Информация : Digital Theater Systems
Идентификатор кодека : A_DTS
Продолжительность : 1 ч. 29 м.
Вид битрейта : Постоянный
Битрейт : 1510 Кбит/сек
Каналы : 6 каналов
Расположение каналов : Front: L C R, Side: L R, LFE
Частота : 48,0 КГц
Битовая глубина : 24 бит
Метод сжатия : С потерями
Размер потока : 965 Мбайт (11%)
Заголовок : DTS, 1510 kbps, Rus
Язык : Russian

Текст #1
Идентификатор : 3
Формат : UTF-8
Идентификатор кодека : S_TEXT/UTF8
Идентификатор кодека/Информация : UTF-8 Plain Text
Заголовок : Rus, SRT
Язык : Russian

Текст #2
Идентификатор : 4
Формат : UTF-8
Идентификатор кодека : S_TEXT/UTF8
Идентификатор кодека/Информация : UTF-8 Plain Text
Заголовок : Eng,SRT
Язык : English
x264 [info]: frame I:711 Avg QP:15.64 size:227398 PSNR Mean Y:49.56 U:54.31 V:55.65 Avg:50.71 Global:50.08
x264 [info]: frame P:24101 Avg QP:18.30 size:107568 PSNR Mean Y:46.80 U:52.49 V:53.70 Avg:47.99 Global:47.05
x264 [info]: frame B:103619 Avg QP:20.96 size: 50934 PSNR Mean Y:45.02 U:51.49 V:52.99 Avg:46.35 Global:46.00
x264 [info]: consecutive B-frames: 1.3% 0.9% 4.4% 6.0% 5.1% 78.1% 2.6% 0.1% 1.3% 0.1% 0.1%
x264 [info]: mb I I16..4: 15.2% 66.3% 18.5%
x264 [info]: mb P I16..4: 3.7% 16.7% 1.6% P16..4: 45.0% 22.5% 4.0% 0.2% 0.1% skip: 6.2%
x264 [info]: mb B I16..4: 0.4% 2.0% 0.1% B16..8: 57.1% 14.8% 2.5% direct: 5.3% skip:17.8% L0:50.3% L1:40.4% BI: 9.3%
x264 [info]: 8x8 transform intra:75.9% inter:59.1%
x264 [info]: direct mvs spatial:98.4% temporal:1.6%
x264 [info]: coded y,uvDC,uvAC intra: 88.9% 70.1% 37.1% inter: 43.0% 19.7% 2.4%
x264 [info]: i16 v,h,dc,p: 48% 9% 30% 13%
x264 [info]: i8 v,h,dc,ddl,ddr,vr,hd,vl,hu: 12% 10% 13% 9% 11% 11% 11% 11% 13%
x264 [info]: i4 v,h,dc,ddl,ddr,vr,hd,vl,hu: 14% 10% 10% 9% 12% 11% 11% 10% 13%
x264 [info]: i8c dc,h,v,p: 47% 24% 20% 9%
x264 [info]: Weighted P-Frames: Y:2.1% UV:1.2%
x264 [info]: ref P L0: 47.3% 8.8% 28.0% 15.1% 0.8% 0.0%
x264 [info]: ref B L0: 85.9% 10.6% 3.5%
x264 [info]: ref B L1: 94.7% 5.3%
x264 [info]: SSIM Mean Y:0.9808140 (17.170db)
x264 [info]: PSNR Mean Y:45.375 U:51.691 V:53.138 Avg:46.685 Global:46.195 kb/s:11995.43
source -> genkasper









pb.wtf



Скачать Груз 200 через торрент http://i31.fastpic.ru/big/2012/0203/34/bb99a1179020eeede740627cc48e0534.png Скачать фильм Груз 200 через торрент бесплантно в хорошем качестве Описание: СССР. 1984 год. Финал советской эпохи. Провинция. После дискотеки пропадает дочь секретаря райкома партии. Свидетелей нет. ... 9 10 9
Info! Золотая раздача, скачанное не засчитывается.
Торрент: Зарегистрирован [2012-02-03 09:22] · скачан: 468 раз
Статус: √ проверено
Размер: 8.42 GB
Как cкачать? Как скачать Груз 200 через торрент | qTorrent


>> Регистрируемся здесь <<






Отзывы и комментарии о схеме читаем и пишем здесь: ---> Отзывы и комментарии о схеме

Новые благодарочки в телеграм довольных пользователей:
скриншот   скриншот   скриншот   скриншот   скриншот

03-02-2012 10:42 Груз 200 Скачать торрент  

лучший режиссер.......pb.wtf



03-02-2012 12:23 Груз 200 Скачать торрент  

аццкий фильм! впечатления раздирают, от негативно-отвратительных до сентиментально-трогательных. впечатлительным не смотреть.

p.s. Балабаныч - снимай ищо!pb.wtf



03-02-2012 19:15 Груз 200 Скачать торрент  

Тяжкий фильмpb.wtf



11-02-2012 20:47 Груз 200 Скачать торрент  

В 3D он что ли как?pb.wtf



12-04-2012 05:31 Груз 200 Скачать торрент  

Одним словом триллер. Режиссер: Алексей Балабанов умеет нагнать жути. Всевозможные американские "Пилы" меркнут.pb.wtf



21-04-2012 20:59 Груз 200 Скачать торрент  

фильм хороший! я в шоке (хорошем ). очень много правды. и это правильный фильм. очень понравился хоть и немного в дрожь бросает... а жизнь она не может быть белая и пушистая. господа качайте и смотрите !!! такое надо смотреть!!!!!!!pb.wtf



20-12-2012 06:23 Груз 200 Скачать торрент  

Мерзость!!!Которой и так в жизни(реальной)предостаточно и без "балабановых"...что ты,бл..ь-глаза он нам открыл,пророк х...в!!!А в HD наверное,трупные пятна и мухи лучше просматриваются? pb.wtf



20-01-2013 15:14 Груз 200 Скачать торрент  

Нормальный фильм!Пару раз посмотреть можно.pb.wtf



    Дорогой пользователь! Огромная просьба, поблагодарите релизера, оцените раздачу и оставьте свои комментарий, если Вы скачали Груз 200 через торрент бесплатно! Внесите свою лепту в развитие PiratBit!
    Комментировать посты могут только пользователи прошедшие не сложную регистрацию
    Показать сообщения:    

    Груз 200 через торрент
    Скачать бесплатно Груз 200
    Груз 200 скачать торрент
    Груз 200 смотреть онлайн
    Cкачать фильм Груз 200 бесплатно
    Груз 200 скачать торрент в хорошем качестве
    Груз 200 смотреть онлайн бесплатно в хорошем качестве


    Вы не можете начинать темы
    Вы не можете отвечать на сообщения
    Вы не можете редактировать свои сообщения
    Вы не можете удалять свои сообщения
    Вы не можете голосовать в опросах
    Вы не можете прикреплять файлы к сообщениям
    Вы можете скачивать файлы