1 сезон

3 сезон

iTunes

1

Line

MVO

iTunes

13

1 сезон

RePack

30

Deluxe

pack

Лицензия

ВАЖНО

ИГРА 18+

pack

RePack

MK11

RePack

jed

RePack

fifa19

RePack

RDR2

RePack

NEED FOR SPEED™ PAYBACK

4 сезон

9 сезон

Бесстыжие 9 сезон

Все сериалы

все сериалы на PB.wtf

RePack

FAR CRY 5

Anonymous, доброй ночи, мы катастрофически не успеваем собрать деньги на оплату серверов, помогите нам пожалуйста 5,10,15р., для нас важна любая помощь . В качестве благодарности мы отключим Вам всю рекламу на сайте (укажите свой ник в строку Ваше имя)!

×
  
Magnet ссылка

Охотники за головами / Hodejegerne (Мортен Тильдум / Morten Tyldum) [2011, боевик, триллер, криминал, DVD9] R5 pb.wtf

Охотники за головами через торрент pb.wtf

Размер: 6.02 GB | Добавлен: 9 лет 5 мес. назад | Торрент скачан:66 раз
Скачать  

03-02-2012 20:20 Охотники за головами Скачать торрент  

[font="Georgia"]
Охотники за головами / Hodejegerne
Страна: Германия, Норвегия
Студия: ARD Degeto Film GmbH, Friland A/S, Nordisk Film A/S, Yellow Bird Films AB
Жанр: боевик, триллер, криминал
Год выпуска: 2011
Мировая премьера: 4 августа 2011
Российская премьера: 12 января 2012
Дата выхода DVD: 1 февраля 2012
Продолжительность: 01:36:01
Перевод: Профессиональный (дублированный) [Лицензия]
Cубтитры: нет
Режиссер: Мортен Тильдум / Morten Tyldum
В ролях: Николай Костер-Вальдау, Юлье Ольгорд, Аксель Хенни, Бор Ове, Йоахим Рафаелсен, Эйвинд Сэндер, Нильс Йорген Каалстад, Карре Хаген Сиднесс, Рейдар Серенсен
Описание: Роджер Браун — блестящий «охотник за головами», незаменимый специалист по подбору топ-менеджеров для крупнейших фирм. Он может найти нужного человека на любую должность и его рекомендация — залог получения работы. Чтобы удержать красавицу жену, открывшую на деньги мужа картинную галерею в модном районе, Роджер давно уже живет не по средствам, и, пользуясь своим служебным положением, крадет дорогие картины у претендентов на руководящие должности.
Однажды Роджер встречает голландца Класа Граафа: идеального кандидата для фирмы специализирующейся на навигационном оборудовании и — вот удача! — владельца картины Рубенса, считавшейся утерянной во время Второй Мировой войны. Кража и последующая продажа шедевра может помочь Роджеру навсегда решить все финансовые проблемы.
Но, внезапно, «охотник за головами» сам превращается в добычу.

Бонусы: нет

Релиз группы:
Качество: DVD9 R5
Формат: DVD-Video
Видео кодек: MPEG2
Аудио кодек: AC3
Видео: PAL 16:9 (720x576(0.772)) MPEG Video, 25,000 кадр/сек, 8000 Кбит/сек
Аудио: Russian (Dolby AC3, 6 ch) 448 Кбит/сек, 48,0 КГц



Title:
Size: 6.02 Gb ( 6 309 078 KBytes ) - DVD-9
Enabled regions: 1, 2, 3, 4, 5, 6, 7, 8

VTS_01 :
Play Length: 01:36:01
Video: PAL 16:9 (720x576) VBR, Auto Pan&Scan
Audio:
Russian (Dolby AC3, 6 ch)

VTS_02 :
Play Length: 00:01:21
Video: PAL 16:9 (720x576) VBR, Auto Pan&Scan
Audio:
Russian (Dolby AC3, 2 ch)

Menu Video:
PAL 4:3 (720x576) VBR
Menu Subtitles:
Not specified
Menu English Language Unit :
Root Menu
Общее
Полное имя : G:\Новинки 2012\Ohotniki.za.golovami.2011.DVD9\VIDEO_TS\VTS_01_2.VOB
Формат : MPEG-PS
Размер файла : 1024 Мбайт
Продолжительность : 16 м.
Общий поток : 8586 Кбит/сек

Видео
Идентификатор : 224 (0xE0)
Формат : MPEG Video
Версия формата : Version 2
Профиль формата : Main@Main
Параметр BVOP формата : Да
Параметр матрицы формата : Выборочная
Параметр GOP формата : M=3, N=15
Продолжительность : 16 м.
Битрейт : 8000 Кбит/сек
Ширина : 720 пикселей
Высота : 576 пикселей
Соотношение сторон : 16:9
Частота кадров : 25,000 кадров/сек
Стандарт вещания : PAL
Цветовое пространство : YUV
Субдискретизация насыщенности : 4:2:0
Битовая глубина : 8 бит
Тип развёртки : Прогрессивная
Метод сжатия : С потерями
Бит/(Пиксели*Кадры) : 0.772
Размер потока : 950 Мбайт (93%)

Аудио
Идентификатор : 189 (0xBD)-128 (0x80)
Формат : AC-3
Формат/Информация : Audio Coding 3
Расширение режима : CM (complete main)
Режим смешивания : DVD-Video
Продолжительность : 16 м.
Вид битрейта : Постоянный
Битрейт : 448 Кбит/сек
Каналы : 6 каналов
Расположение каналов : Front: L C R, Side: L R, LFE
Частота : 48,0 КГц
Битовая глубина : 16 бит
Метод сжатия : С потерями
Задержка видео : -560 мс.
Размер потока : 53,4 Мбайт (5%)










pb.wtf



Скачать Охотники за головами через торрент http://i1.imageban.ru/out/2012/02/03/4f20167fa35310980d79e76108d12311.jpg Скачать фильм Охотники за головами через торрент бесплантно в хорошем качестве Описание: Роджер Браун — блестящий «охотник за головами», незаменимый специалист по подбору топ-менеджеров для крупнейших фирм. Он может ... 4.6 10 8
Info! Золотая раздача, скачанное не засчитывается.
Торрент: Зарегистрирован [2012-02-03 20:20] · скачан: 66 раз
Статус: √ проверено
Размер: 6.02 GB
Как cкачать? Как скачать Охотники за головами через торрент | UTorrent

28-11-2019 20:33  

Отключить всю рекламу на сайте

    Дорогой пользователь! Огромная просьба, поблагодарите релизера, оцените раздачу и оставьте свои комментарий, если Вы скачали Охотники за головами через торрент бесплатно! Внесите свою лепту в развитие PiratBit!
    Комментировать посты могут только пользователи прошедшие не сложную регистрацию
    Показать сообщения:    

    Охотники за головами через торрент
    Скачать бесплатно Охотники за головами
    Охотники за головами скачать торрент
    Охотники за головами смотреть онлайн
    Cкачать фильм Охотники за головами бесплатно
    Охотники за головами скачать торрент в хорошем качестве
    Охотники за головами смотреть онлайн бесплатно в хорошем качестве


    Вы не можете начинать темы
    Вы не можете отвечать на сообщения
    Вы не можете редактировать свои сообщения
    Вы не можете удалять свои сообщения
    Вы не можете голосовать в опросах
    Вы не можете прикреплять файлы к сообщениям
    Вы можете скачивать файлы