2 сезон

iTunes

MVO

1

2 сезон

iTunes

1 сезон

1 сезон

RePack

30

Новинка

ВАЖНО

ИГРА 18+

pack

RePack

MK11
pack

Легкие деньги

RePack

jed

RePack

fifa19

RePack

RDR2

RePack

NEED FOR SPEED™ PAYBACK

4 сезон

9 сезон

Бесстыжие 9 сезон

Все сериалы

все сериалы на PB.wtf

RePack

FAR CRY 5

Anonymous, добрый вечер, мы не успеваем собрать деньги на оплату серверов за декабрь и январь, помогите нам пожалуйста в это трудное время. В качестве благодарности мы отключим Вам всю рекламу на сайте (укажите свой ник в строку Ваше имя)!

×
  
Magnet ссылка

Трансформеры 3: Тёмная сторона Луны 3Д / Transformers: Dark of the Moon 3D (Майкл Бэй / Michael Bay) [2011, Фантастика, Боевик, Приключения, BDrip 1080p] Anaglyph DUBois / Анаглиф Дюбуа pb.wtf

Трансформеры 3: Тёмная сторона Луны 3Д через торрент pb.wtf

Размер: 14.06 GB | Добавлен: 8 лет 11 мес. назад | Торрент скачан:1534 раза
Скачать  

03-02-2012 21:39 Трансформеры 3: Тёмная сторона Луны 3Д Скачать торрент  

[font="Monotype corsiva"] Трансформеры 3: Тёмная сторона Луны 3D | Transformers: Dark of the Moon 3D
«Последний шанс цивилизации»
Год выпуска : 2011
Страна: США
Жанр : Фантастика, Боевик, Приключения
Продолжительность : 02:34:23
Перевод : Дублированный
Cубтитры : Русские

Режиссер : Майкл Бэй / Michael Bay

В ролях : Шайа ЛаБаф, Джош Дюамель, Джон Туртурро, Тайриз Гибсон, Роузи Хантингтон-Уайтли, Патрик Демпси, Кевин Данн, Джули Уайт, Джон Малкович, Фрэнсис МакДорманд, Алан Тьюдик, Кен Жонг, Гленн Моршауэр, Майти Раста, Билл О’Рейли, Равиль Исянов, Бретт Стимли, Дон Джинес

Описание : Для наших героев наступили печальные будни: Сэм потерял Микаэлу, правительство выпускает законодательный акт о выселении Автоботов с Земли, а пока Мегатрон скрывается после позорного поражения Фоллена, десептикон Шокуэйв, правитель Кибертрона, готовится нанести визит нашей планете с совсем недобрыми намерениями. Действие заключительной части трилогии на этот раз охватит не только Землю, но и Луну, темная сторона которой хранит не менее темные тайны.

Похожие раздачи : Трансформеры 3: Тёмная сторона Луны

Качество : BDRip 1080p
Формат : MKV
Формат 3D: Анаглиф red-cyan (Дюбуа)
Видео кодек : h.264
Аудио кодек : AC-3
Видео : CCV1 1920x800 23.98fps 11.5 Mbps
Аудио#1 : Русский / Дублированный Dolby AC3 48000Hz 6ch 640 Kbps | Русский|
Аудио#2 : English Dolby AC3 48000Hz 6ch 640 Kbps |Английский|
Формат субтитров : Русские форсированные (только надписи)

Код:

General
Format : Matroska
Format version : Version 2
File size : 14.1 GiB
Duration : 2h 34mn
Overall bit rate : 13.0 Mbps
Encoded date : UTC 2012-01-28 04:27:26
Writing application : mkvmerge v4.4.0 ('Die Wiederkehr') сборка от Oct 31 2010 21:52:48
Writing library : libebml v1.0.0 + libmatroska v1.0.0
Video
ID : 1
Format : AVC
Format/Info : Advanced Video Codec
Format profile : High@L4.0
Format settings, CABAC : Yes
Format settings, ReFrames : 4 frames
Codec ID : V_MPEG4/ISO/AVC
Duration : 2h 34mn
Bit rate : 11.5 Mbps
Width : 1 920 pixels
Height : 800 pixels
Display aspect ratio : 2.40:1
Frame rate : 23.976 fps
Color space : YUV
Chroma subsampling : 4:2:0
Bit depth : 8 bits
Scan type : Progressive
Bits/(Pixel*Frame) : 0.312
Stream size : 12.4 GiB (88%)
Title : Anaglyph Dubois by Boss-Master
Writing library : x264 core 115 r1995 c1e60b9
Encoding settings : cabac=1 / ref=4 / deblock=1:-2:-2 / analyse=0x3:0x113 / me=umh / subme=9 / psy=1 / psy_rd=1.00:0.15 / mixed_ref=1 / me_range=16 / chroma_me=1 / trellis=2 / 8x8dct=1 / cqm=0 / deadzone=21,11 / fast_pskip=1 / chroma_qp_offset=-3 / threads=6 / sliced_threads=0 / nr=0 / decimate=1 / interlaced=0 / bluray_compat=0 / constrained_intra=0 / bframes=6 / b_pyramid=0 / b_adapt=2 / b_bias=0 / direct=3 / weightb=1 / open_gop=0 / weightp=2 / keyint=250 / keyint_min=23 / scenecut=40 / intra_refresh=0 / rc_lookahead=40 / rc=crf / mbtree=1 / crf=18.0 / qcomp=0.60 / qpmin=10 / qpmax=69 / qpstep=4 / ip_ratio=1.40 / aq=1:1.00
Audio #1
ID : 2
Format : AC-3
Format/Info : Audio Coding 3
Mode extension : CM (complete main)
Codec ID : A_AC3
Duration : 2h 34mn
Bit rate mode : Constant
Bit rate : 640 Kbps
Channel(s) : 6 channels
Channel positions : Front: L C R, Side: L R, LFE
Sampling rate : 48.0 KHz
Bit depth : 16 bits
Compression mode : Lossy
Stream size : 707 MiB (5%)
Language : Russian
Audio #2
ID : 3
Format : AC-3
Format/Info : Audio Coding 3
Mode extension : CM (complete main)
Codec ID : A_AC3
Duration : 2h 34mn
Bit rate mode : Constant
Bit rate : 640 Kbps
Channel(s) : 6 channels
Channel positions : Front: L C R, Side: L R, LFE
Sampling rate : 48.0 KHz
Bit depth : 16 bits
Compression mode : Lossy
Stream size : 707 MiB (5%)
Language : English
Text
ID : 4
Format : UTF-8
Codec ID : S_TEXT/UTF8
Codec ID/Info : UTF-8 Plain Text
Language : Russian
Menu
00:00:00.000 : en:00:00:00.000
00:08:52.574 : en:00:08:52.574
00:14:26.616 : en:00:14:26.616
00:20:20.928 : en:00:20:20.928
00:28:48.143 : en:00:28:48.143
00:36:18.635 : en:00:36:18.635
00:45:18.549 : en:00:45:18.549
00:51:53.027 : en:00:51:53.027
00:56:34.224 : en:00:56:34.224
01:04:13.308 : en:01:04:13.308
01:12:56.706 : en:01:12:56.706
01:19:09.078 : en:01:19:09.078
01:23:41.391 : en:01:23:41.391
01:28:44.819 : en:01:28:44.819
01:35:13.082 : en:01:35:13.082
01:42:44.158 : en:01:42:44.158
01:49:12.337 : en:01:49:12.337
01:56:42.913 : en:01:56:42.913
02:04:59.117 : en:02:04:59.117
02:11:29.590 : en:02:11:29.590
02:19:10.884 : en:02:19:10.884
02:25:37.520 : en:02:25:37.520

pb.wtf



Скачать Трансформеры 3: Тёмная сторона Луны 3Д через торрент http://i29.fastpic.ru/big/2012/0204/13/5608341061718ac740de12cdf931cf13.jpg Скачать фильм Трансформеры 3: Тёмная сторона Луны 3Д через торрент бесплантно в хорошем качестве Описание : Для наших героев наступили печальные будни: Сэм потерял Микаэлу, правительство выпускает законодательный акт о выселении ... 9.2 10 9
Info! Золотая раздача, скачанное не засчитывается.
Торрент: Зарегистрирован [2012-02-03 21:39] · скачан: 1 534 раз
Статус: √ проверено
Размер: 14.06 GB
Как cкачать? Как скачать Трансформеры 3: Тёмная сторона Луны 3Д через торрент | UTorrent

28-11-2019 20:33  

Отключить всю рекламу на сайте

06-02-2012 07:06 Трансформеры 3: Тёмная сторона Луны 3Д Скачать торрент  

второй скрин прикольный!!!! у телки видать во время съемки дела пришли!!!!! pb.wtf



05-05-2012 08:05 Трансформеры 3: Тёмная сторона Луны 3Д Скачать торрент  

Sobolev85
это 3Dpb.wtf



19-07-2012 16:02 Трансформеры 3: Тёмная сторона Луны 3Д Скачать торрент  

Что это за фуфел такой,это не 3D :cansored: :cansored: :cansored: javascript:emoticon(':cansored:')pb.wtf



30-07-2012 16:00 Трансформеры 3: Тёмная сторона Луны 3Д Скачать торрент  

аналиф !!! пАйдет спс .посмотрим !!!pb.wtf



30-09-2012 15:52 Трансформеры 3: Тёмная сторона Луны 3Д Скачать торрент  

Mashok
согласен ,это не 3d.pb.wtf



17-10-2012 15:48 Трансформеры 3: Тёмная сторона Луны 3Д Скачать торрент  

Спасибо за анаглиф, очки из детской книжки, по скринам стереокартинку видно посмотрим как фильм.pb.wtf



18-10-2012 15:02 Трансформеры 3: Тёмная сторона Луны 3Д Скачать торрент  

постоянно ошибка вылазит "Процесс не может получить доступ к файлу, так как этот файл занят другим процессом.pb.wtf



22-10-2012 12:34 Трансформеры 3: Тёмная сторона Луны 3Д Скачать торрент  

Это совсем ни 3Dpb.wtf



02-11-2012 12:55 Трансформеры 3: Тёмная сторона Луны 3Д Скачать торрент  

это 3d фильм!! Просто анаглиф называеться смотреть только с анаглифными очками!!!pb.wtf



    Дорогой пользователь! Огромная просьба, поблагодарите релизера, оцените раздачу и оставьте свои комментарий, если Вы скачали Трансформеры 3: Тёмная сторона Луны 3Д через торрент бесплатно! Внесите свою лепту в развитие PiratBit!
    Комментировать посты могут только пользователи прошедшие не сложную регистрацию
    Показать сообщения:    

    Трансформеры 3: Тёмная сторона Луны 3Д через торрент
    Скачать бесплатно Трансформеры 3: Тёмная сторона Луны 3Д
    Трансформеры 3: Тёмная сторона Луны 3Д скачать торрент
    Трансформеры 3: Тёмная сторона Луны 3Д смотреть онлайн
    Cкачать фильм Трансформеры 3: Тёмная сторона Луны 3Д бесплатно
    Трансформеры 3: Тёмная сторона Луны 3Д скачать торрент в хорошем качестве
    Трансформеры 3: Тёмная сторона Луны 3Д смотреть онлайн бесплатно в хорошем качестве


    Вы не можете начинать темы
    Вы не можете отвечать на сообщения
    Вы не можете редактировать свои сообщения
    Вы не можете удалять свои сообщения
    Вы не можете голосовать в опросах
    Вы не можете прикреплять файлы к сообщениям
    Вы можете скачивать файлы