Ссылка на приватное зеркало нашего сайта всего за 1$. Внимание количество ограничено!!!

2 сезон

iTunes

1 сезон

1

iTunes

iTunes

iTunes

1 сезон

RePack

30

ИГРА 18+

pack

ВАЖНО

!!Акция!!

Alien_RageХит недели

RePack

MK11
pack

Забери бонус

RePack

jed

!!Акция!!

Alien_Rage

RePack

fifa19

RePack

Assassins Creed: Odyssey

RePack

NEED FOR SPEED™ PAYBACK

4 сезон

9 сезон

Бесстыжие 9 сезон

Все сериалы

все сериалы на PB.wtf

RePack

FAR CRY 5
  

Главный охотник на ведьм / Великий инквизитор / Witchfinder General (Майкл Ривз / Michael Reeves) [1968 г., ужасы, триллер, драма, BDRip 1080p] VO (Логинофф) от R.G. nICE Films pb.wtf

Главный охотник на ведьм через торрент pb.wtf

Размер: 12.12 GB | Добавлен: 8 лет 8 мес. назад | Торрент скачан:49 раз
Скачать  

04-02-2012 15:09 Главный охотник на ведьм Скачать торрент  

[font="Georgia"]Главный охотник на ведьм / Великий инквизитор / Witchfinder General
Год выпуска: 1968
Страна: Великобритания
Жанр: ужасы, триллер, драма
Продолжительность: 01:26:42
Перевод: Одноголосый, закадровый - Максим Логинофф
Субтитры: английские

Режиссер: Майкл Ривз / Michael Reeves

В ролях: Винсент Прайс, Иан Огилви, Руперт Дейвис, Хилари Хит, Роберт Рассел, Никки Хенсон, Тони Шелби, Бернард Кэй, Годфри Джеймс, Майкл Бейнт

Описание: Действие фильма происходит в Англии 1645 года. Меттью Хопкинс является официальным ведьмоловом и вместе со своим напарником Стерном истребляет ведьм и другую нечисть, а также тех, кто имеет к ней отношение, за что получает внушительные деньги из государтсвенной казны...

Доп. информация:
Релиз от:

rip by genkasper
[font="Georgia"]Сэмпл
Качество: BDRip 1080p
Формат: MKV
Видео: MPEG4 AVC / 18000 kbps / 1920x1040p / 23.976 fps / High Profile 4.1
Аудио: Russian / DTS 2.0 / 48 kHz / 512 kbps / 24-bit
Аудио: English / DTS 2.0 / 48 kHz / 1510 kbps / 24-bit
Субтитры Английские (srt)
x264 [info]: frame I:730 Avg QP:18.06 size:233828 PSNR Mean Y:47.10 U:52.46 V:52.33 Avg:48.24 Global:47.67
x264 [info]: frame P:23277 Avg QP:20.32 size:125280 PSNR Mean Y:45.38 U:51.51 V:51.32 Avg:46.60 Global:45.65
x264 [info]: frame B:100728 Avg QP:22.00 size: 85530 PSNR Mean Y:43.12 U:49.95 V:49.75 Avg:44.41 Global:43.82
x264 [info]: consecutive B-frames: 1.2% 1.8% 4.3% 14.1% 10.5% 44.0% 6.7% 3.3% 4.2% 2.1% 2.1% 3.4% 1.1% 0.5% 0.3% 0.0%
x264 [info]: mb I I16..4: 11.5% 64.6% 23.9%
x264 [info]: mb P I16..4: 6.3% 40.3% 5.2% P16..4: 25.5% 15.9% 2.8% 0.2% 0.1% skip: 3.6%
x264 [info]: mb B I16..4: 3.5% 13.4% 1.5% B16..8: 34.0% 13.5% 3.1% direct:20.6% skip:10.5% L0:41.5% L1:39.8% BI:18.7%
x264 [info]: 8x8 transform intra:74.6% inter:60.2%
x264 [info]: direct mvs spatial:98.5% temporal:1.5%
x264 [info]: coded y,uvDC,uvAC intra: 91.2% 69.8% 23.8% inter: 66.8% 54.3% 1.7%
x264 [info]: i16 v,h,dc,p: 24% 9% 42% 25%
x264 [info]: i8 v,h,dc,ddl,ddr,vr,hd,vl,hu: 10% 8% 12% 9% 12% 12% 11% 12% 13%
x264 [info]: i4 v,h,dc,ddl,ddr,vr,hd,vl,hu: 10% 7% 7% 9% 13% 13% 13% 12% 16%
x264 [info]: i8c dc,h,v,p: 42% 25% 23% 10%
x264 [info]: Weighted P-Frames: Y:9.5% UV:4.3%
x264 [info]: ref P L0: 42.7% 11.8% 28.0% 15.7% 1.8% 0.0%
x264 [info]: ref B L0: 82.9% 14.2% 3.0%
x264 [info]: ref B L1: 89.0% 11.0%
x264 [info]: SSIM Mean Y:0.9746673 (15.963db)
x264 [info]: PSNR Mean Y:43.562 U:50.254 V:50.055 Avg:44.841 Global:44.128 kb/s:17994.61
Полное имя : Witchfinder.General.1968.BDRip.1080p.by_genkasper.mkv
Формат : Matroska
Версия формата : Version 2
Размер файла : 12,1 Гбайт
Продолжительность : 1 ч. 26 м.
Общий поток : 20,0 Мбит/сек
Дата кодирования : UTC 2012-02-04 15:06:08
Программа кодирования : mkvmerge v5.2.1 ('A Far Off Place') built on Jan 2 2012 23:21:10
Библиотека кодирования : libebml v1.2.3 + libmatroska v1.3.0

Видео
Идентификатор : 1
Формат : AVC
Формат/Информация : Advanced Video Codec
Профиль формата : High@L4.1
Параметр CABAC формата : Да
Параметр ReFrames формата : 4 кадра
Идентификатор кодека : V_MPEG4/ISO/AVC
Продолжительность : 1 ч. 26 м.
Битрейт : 18,0 Мбит/сек
Ширина : 1920 пикселей
Высота : 1040 пикселей
Соотношение сторон : 16:9
Частота кадров : 23,976 кадра/сек
Цветовое пространство : YUV
Субдискретизация насыщенности : 4:2:0
Битовая глубина : 8 бит
Тип развёртки : Прогрессивная
Бит/(Пиксели*Кадры) : 0.376
Размер потока : 10,7 Гбайт (88%)
Библиотека кодирования : x264 core 115 r1936 7a9e08d
Настройки программы : cabac=1 / ref=4 / deblock=1:-1:-1 / analyse=0x3:0x133 / me=umh / subme=10 / psy=1 / psy_rd=1.00:0.10 / mixed_ref=1 / me_range=24 / chroma_me=1 / trellis=2 / 8x8dct=1 / cqm=0 / deadzone=21,11 / fast_pskip=0 / chroma_qp_offset=-3 / threads=9 / sliced_threads=0 / nr=0 / decimate=1 / interlaced=0 / bluray_compat=0 / constrained_intra=0 / bframes=15 / b_pyramid=2 / b_adapt=2 / b_bias=0 / direct=3 / weightb=1 / open_gop=0 / weightp=2 / keyint=250 / keyint_min=23 / scenecut=40 / intra_refresh=0 / rc_lookahead=50 / rc=2pass / mbtree=1 / bitrate=18000 / ratetol=1.0 / qcomp=0.70 / qpmin=0 / qpmax=69 / qpstep=4 / cplxblur=20.0 / qblur=0.5 / ip_ratio=1.40 / aq=1:1.00
Язык : English

Аудио #1
Идентификатор : 2
Формат : DTS
Формат/Информация : Digital Theater Systems
Идентификатор кодека : A_DTS
Продолжительность : 1 ч. 26 м.
Вид битрейта : Постоянный
Битрейт : 512 Кбит/сек
Каналы : 2 канала
Расположение каналов : Front: L R
Частота : 48,0 КГц
Битовая глубина : 24 бит
Метод сжатия : С потерями
Задержка видео : 1 мс.
Размер потока : 318 Мбайт (3%)
Заголовок : Loginoff
Язык : Russian

Аудио #2
Идентификатор : 3
Формат : DTS
Формат/Информация : Digital Theater Systems
Идентификатор кодека : A_DTS
Продолжительность : 1 ч. 26 м.
Вид битрейта : Постоянный
Битрейт : 1510 Кбит/сек
Каналы : 2 канала
Расположение каналов : Front: L R
Частота : 48,0 КГц
Битовая глубина : 24 бит
Метод сжатия : С потерями
Задержка видео : 1 мс.
Размер потока : 936 Мбайт (8%)
Заголовок : Origina
Язык : English

Текст
Идентификатор : 4
Формат : UTF-8
Идентификатор кодека : S_TEXT/UTF8
Идентификатор кодека/Информация : UTF-8 Plain Text
Заголовок : Eng, SRT
Язык : English
source -> genkasper






pb.wtf



Скачать Главный охотник на ведьм через торрент http://i32.fastpic.ru/big/2012/0204/c9/f944b7584dcf7d1186fc53e8c88b6bc9.jpg Скачать фильм Главный охотник на ведьм через торрент бесплантно в хорошем качестве Описание: Действие фильма происходит в Англии 1645 года. Меттью Хопкинс является официальным ведьмоловом и вместе со своим напарником ... 10 10 3
Info! Золотая раздача, скачанное не засчитывается.
Торрент: Зарегистрирован [2012-02-04 15:09] · скачан: 49 раз
Статус: √ проверено
Размер: 12.12 GB
Как cкачать? Как скачать Главный охотник на ведьм через торрент | qTorrent

28-11-2019 20:33  

Отключить всю рекламу на сайте

    Дорогой пользователь! Огромная просьба, поблагодарите релизера, оцените раздачу и оставьте свои комментарий, если Вы скачали Главный охотник на ведьм через торрент бесплатно! Внесите свою лепту в развитие PiratBit!
    Комментировать посты могут только пользователи прошедшие не сложную регистрацию
    Показать сообщения:    

    Главный охотник на ведьм через торрент
    Скачать бесплатно Главный охотник на ведьм
    Главный охотник на ведьм скачать торрент
    Главный охотник на ведьм смотреть онлайн
    Cкачать фильм Главный охотник на ведьм бесплатно
    Главный охотник на ведьм скачать торрент в хорошем качестве
    Главный охотник на ведьм смотреть онлайн бесплатно в хорошем качестве


    Вы не можете начинать темы
    Вы не можете отвечать на сообщения
    Вы не можете редактировать свои сообщения
    Вы не можете удалять свои сообщения
    Вы не можете голосовать в опросах
    Вы не можете прикреплять файлы к сообщениям
    Вы можете скачивать файлы