Ссылка на приватное зеркало нашего сайта всего за 1$. Внимание количество ограничено!!!

2 сезон

iTunes

1 сезон

1

iTunes

iTunes

iTunes

1 сезон

RePack

30

ИГРА 18+

pack

ВАЖНО

!!Акция!!

Alien_RageХит недели

RePack

MK11
pack

Забери бонус

RePack

jed

!!Акция!!

Alien_Rage

RePack

fifa19

RePack

Assassins Creed: Odyssey

RePack

NEED FOR SPEED™ PAYBACK

4 сезон

9 сезон

Бесстыжие 9 сезон

Все сериалы

все сериалы на PB.wtf

RePack

FAR CRY 5
  

Мечты сбываются / Deep in the Valley (Кристиан Форте / Christian Forte) [2009 г., комедия, BDRip 1080p] MVO от R.G. nICE Films pb.wtf

Мечты сбываются через торрент pb.wtf

Размер: 8.8 GB | Добавлен: 8 лет 8 мес. назад | Торрент скачан:64 раза
Скачать  

05-02-2012 11:26 Мечты сбываются Скачать торрент  

[font="Georgia"]Мечты сбываются / Deep in the Valley
Год выпуска: 2009
Страна: США
Жанр: комедия
Продолжительность: 01:27:02
Перевод: Профессиональный (многоголосый, закадровый)
Русские субтитры: есть

Режиссер: Кристиан Форте / Christian Forte

В ролях: Крис Прэтт, Брендан П. Хайнс, Скотт Каан, Рэйчел Спектер, Кейт Альбрехт, Дениз Ричардс, Кристофер МакДональд, Бланка Сото, Трэйси Морган, Шарлотта Солт

Описание: Благодаря волшебной машине двое юношей перемещаются в иное измерение и попадают на съемочную площадку фильмов для взрослых. Пребывание в параллельном мире, в котором нет правил и всё дозволено, приятно и соблазнительно. На первый взгляд, для сексуально озабоченных юнцов это настоящий рай. Но только на первый взгляд. ..

Релиз от:

rip by genkasper
Сэмпл

Качество: BDRip 1080p
Формат: MKV
Видео: AVC / 12000 kbps / 1920x816p / 25 fps / High@L4.1
Аудио 1: Russian AC3 Dolby Digital Audio 2.0 / 48 kHz / 192 kbps многоголосый, с трансляции НТВ+ *
Аудио 2: Russian DTS 5.1 / 48 kHz / 1510 kbps / 24-bit многоголосый, "Вольга"
Аудио 3: English DTS 5.1 / 48 kHz / 755 kbps / 24-bit
Субтитры: русские
Навигация по главам: есть
Полное имя : Deep.In.The.Valley.2009.BDRip.1080p.by_genkasper.mkv
Формат : Matroska
Версия формата : Version 2
Размер файла : 8,80 Гбайт
Продолжительность : 1 ч. 27 м.
Общий поток : 14,5 Мбит/сек
Название фильма : Deep.In.The.Valley.2009.1080i.Bluray.GER.1080i.MPEG2.Remux
Дата кодирования : UTC 2012-02-05 11:45:16
Программа кодирования : mkvmerge v5.2.1 ('A Far Off Place') built on Jan 2 2012 23:21:10
Библиотека кодирования : libebml v1.2.3 + libmatroska v1.3.0

Видео
Идентификатор : 1
Формат : AVC
Формат/Информация : Advanced Video Codec
Профиль формата : High@L4.1
Параметр CABAC формата : Да
Параметр ReFrames формата : 5 кадров
Идентификатор кодека : V_MPEG4/ISO/AVC
Продолжительность : 1 ч. 27 м.
Битрейт : 12,0 Мбит/сек
Ширина : 1920 пикселей
Высота : 816 пикселей
Соотношение сторон : 2,35:1
Частота кадров : 25,000 кадров/сек
Цветовое пространство : YUV
Субдискретизация насыщенности : 4:2:0
Битовая глубина : 8 бит
Тип развёртки : Прогрессивная
Бит/(Пиксели*Кадры) : 0.306
Размер потока : 7,13 Гбайт (81%)
Библиотека кодирования : x264 core 115 r1936 7a9e08d
Настройки программы : cabac=1 / ref=5 / deblock=1:-1:-1 / analyse=0x3:0x133 / me=umh / subme=10 / psy=1 / psy_rd=1.00:0.10 / mixed_ref=1 / me_range=24 / chroma_me=1 / trellis=2 / 8x8dct=1 / cqm=0 / deadzone=21,11 / fast_pskip=0 / chroma_qp_offset=-3 / threads=9 / sliced_threads=0 / nr=0 / decimate=1 / interlaced=0 / bluray_compat=0 / constrained_intra=0 / bframes=11 / b_pyramid=2 / b_adapt=2 / b_bias=0 / direct=3 / weightb=1 / open_gop=0 / weightp=2 / keyint=250 / keyint_min=25 / scenecut=40 / intra_refresh=0 / rc_lookahead=50 / rc=2pass / mbtree=1 / bitrate=12000 / ratetol=1.0 / qcomp=0.70 / qpmin=0 / qpmax=69 / qpstep=4 / cplxblur=20.0 / qblur=0.5 / ip_ratio=1.40 / aq=1:1.00
Язык : English

Аудио #1
Идентификатор : 2
Формат : AC-3
Формат/Информация : Audio Coding 3
Расширение режима : CM (complete main)
Идентификатор кодека : A_AC3
Продолжительность : 1 ч. 27 м.
Вид битрейта : Постоянный
Битрейт : 192 Кбит/сек
Каналы : 2 канала
Расположение каналов : Front: L R
Частота : 48,0 КГц
Битовая глубина : 16 бит
Метод сжатия : С потерями
Размер потока : 120 Мбайт (1%)
Заголовок : NTV+
Язык : Russian

Аудио #2
Идентификатор : 3
Формат : DTS
Формат/Информация : Digital Theater Systems
Идентификатор кодека : A_DTS
Продолжительность : 1 ч. 27 м.
Вид битрейта : Постоянный
Битрейт : 1510 Кбит/сек
Каналы : 6 каналов
Расположение каналов : Front: L C R, Side: L R, LFE
Частота : 48,0 КГц
Битовая глубина : 24 бит
Метод сжатия : С потерями
Размер потока : 940 Мбайт (10%)
Заголовок : MVO, Vol'ga
Язык : Russian

Аудио #3
Идентификатор : 4
Формат : DTS
Формат/Информация : Digital Theater Systems
Идентификатор кодека : A_DTS
Продолжительность : 1 ч. 27 м.
Вид битрейта : Постоянный
Битрейт : 755 Кбит/сек
Каналы : 6 каналов
Расположение каналов : Front: L C R, Side: L R, LFE
Частота : 48,0 КГц
Битовая глубина : 24 бит
Метод сжатия : С потерями
Размер потока : 470 Мбайт (5%)
Заголовок : Original
Язык : English

Текст
Идентификатор : 5
Формат : UTF-8
Идентификатор кодека : S_TEXT/UTF8
Идентификатор кодека/Информация : UTF-8 Plain Text
Заголовок : Rus, SRT
Язык : Russian

Меню
00:00:00.000 : en:00:00:00.000
00:01:53.320 : en:00:01:53.320
00:11:56.640 : en:00:11:56.640
00:23:46.200 : en:00:23:46.200
00:35:06.240 : en:00:35:06.240
00:41:21.320 : en:00:41:21.320
00:47:01.800 : en:00:47:01.800
00:54:58.240 : en:00:54:58.240
01:02:54.800 : en:01:02:54.800
01:10:43.320 : en:01:10:43.320
01:17:57.880 : en:01:17:57.880
01:24:02.360 : en:01:24:02.360
x264 [info]: frame I:1076 Avg QP:16.90 size:197081 PSNR Mean Y:48.01 U:50.48 V:51.24 Avg:48.73 Global:48.49
x264 [info]: frame P:26218 Avg QP:19.45 size: 92400 PSNR Mean Y:46.11 U:48.93 V:50.01 Avg:46.85 Global:46.16
x264 [info]: frame B:103280 Avg QP:20.82 size: 50324 PSNR Mean Y:44.32 U:47.33 V:48.80 Avg:45.17 Global:44.95
x264 [info]: consecutive B-frames: 2.1% 2.0% 7.9% 7.4% 5.6% 69.5% 2.5% 0.5% 0.9% 0.2% 0.3% 0.2%
x264 [info]: mb I I16..4: 6.4% 75.0% 18.7%
x264 [info]: mb P I16..4: 2.4% 31.9% 2.8% P16..4: 35.8% 17.9% 3.8% 0.2% 0.1% skip: 5.1%
x264 [info]: mb B I16..4: 0.3% 5.9% 0.4% B16..8: 36.7% 11.5% 2.9% direct:18.1% skip:24.2% L0:40.2% L1:37.6% BI:22.2%
x264 [info]: 8x8 transform intra:86.8% inter:57.4%
x264 [info]: direct mvs spatial:98.6% temporal:1.4%
x264 [info]: coded y,uvDC,uvAC intra: 94.1% 90.8% 73.4% inter: 49.6% 46.2% 16.8%
x264 [info]: i16 v,h,dc,p: 32% 12% 8% 47%
x264 [info]: i8 v,h,dc,ddl,ddr,vr,hd,vl,hu: 14% 9% 10% 9% 11% 13% 9% 14% 11%
x264 [info]: i4 v,h,dc,ddl,ddr,vr,hd,vl,hu: 13% 11% 4% 8% 12% 14% 12% 12% 12%
x264 [info]: i8c dc,h,v,p: 45% 19% 21% 16%
x264 [info]: Weighted P-Frames: Y:1.6% UV:1.2%
x264 [info]: ref P L0: 44.1% 10.8% 20.9% 13.9% 9.4% 0.9% 0.0%
x264 [info]: ref B L0: 77.4% 16.2% 5.1% 1.2%
x264 [info]: ref B L1: 91.8% 8.2%
x264 [info]: SSIM Mean Y:0.9785250 (16.681db)
x264 [info]: PSNR Mean Y:44.709 U:47.675 V:49.065 Avg:45.536 Global:45.190 kb/s:11996.45
source -> genkasper









Русская 2.0 дорога взята с показа НТВ+, т.к 5.1 в сети совершенного не товарного вида
pb.wtf



Скачать Мечты сбываются через торрент http://i28.fastpic.ru/big/2012/0205/68/f60d82fd55e69cf924189e3aa7d36f68.jpg Скачать фильм Мечты сбываются через торрент бесплантно в хорошем качестве Описание: Благодаря волшебной машине двое юношей перемещаются в иное измерение и попадают на съемочную площадку фильмов для взрослых. ... 5 10 4
Info! Золотая раздача, скачанное не засчитывается.
Торрент: Зарегистрирован [2012-02-05 11:26] · скачан: 64 раз
Статус: √ проверено
Размер: 8.8 GB
Как cкачать? Как скачать Мечты сбываются через торрент | qTorrent

28-11-2019 20:33  

Отключить всю рекламу на сайте

    Дорогой пользователь! Огромная просьба, поблагодарите релизера, оцените раздачу и оставьте свои комментарий, если Вы скачали Мечты сбываются через торрент бесплатно! Внесите свою лепту в развитие PiratBit!
    Комментировать посты могут только пользователи прошедшие не сложную регистрацию
    Показать сообщения:    

    Мечты сбываются через торрент
    Скачать бесплатно Мечты сбываются
    Мечты сбываются скачать торрент
    Мечты сбываются смотреть онлайн
    Cкачать фильм Мечты сбываются бесплатно
    Мечты сбываются скачать торрент в хорошем качестве
    Мечты сбываются смотреть онлайн бесплатно в хорошем качестве


    Вы не можете начинать темы
    Вы не можете отвечать на сообщения
    Вы не можете редактировать свои сообщения
    Вы не можете удалять свои сообщения
    Вы не можете голосовать в опросах
    Вы не можете прикреплять файлы к сообщениям
    Вы можете скачивать файлы