Ссылка на приватное зеркало нашего сайта всего за 1$. Внимание количество ограничено!!!

2 сезон

iTunes

1 сезон

1

iTunes

iTunes

iTunes

1 сезон

RePack

30

ИГРА 18+

pack

ВАЖНО

!!Акция!!

Alien_RageХит недели

RePack

MK11
pack

Забери бонус

RePack

jed

!!Акция!!

Alien_Rage

RePack

fifa19

RePack

Assassins Creed: Odyssey

RePack

NEED FOR SPEED™ PAYBACK

4 сезон

9 сезон

Бесстыжие 9 сезон

Все сериалы

все сериалы на PB.wtf

RePack

FAR CRY 5
  

Ромовый дневник / The Rum Diary (Брюс Робинсон / Bruce Robinson) [2011, США, драма, комедия, приключения,​ BDRip-AVC] DUB + Eng + Sub(rus,eng) pb.wtf

Ромовый дневник через торрент pb.wtf

Размер: 2.51 GB | Добавлен: 8 лет 8 мес. назад | Торрент скачан:246 раз
Скачать  

08-02-2012 12:48 Ромовый дневник Скачать торрент  

Ромовый дневник / The Rum Diary Год выпуска: 2011
Страна: США, Dark & Stormy, FilmEngine, GK Films, Infinitum Nihil Production
Жанр: драма, комедия, приключения
Продолжительность: 01:59:59
Перевод: Профессиональный (полное дублирование) [Лицензия]
Cубтитры: русские, английские
Режиссер: Брюс Робинсон
В ролях: Джонни Депп, Майкл Рисполи, Аарон Экхарт, Эмбер Хёрд, Джованни Рибизи, Ричард Дженкинс, Амори Ноласко, Маршалл Белл, Энди Умбергер, Билл Смитрович
Описание: 1960-й год. Талантливый журналист Пол Кэмп, которого достала лживая глянцевая жизнь Нью-Йорка, бросает работу в престижном издании и уезжает в Пуэрто-Рико, где ром льется рекой, где дешево все — машины, яхты, девушки, здесь саму жизнь продают за копейки…
Формат: MKV
Качество: BDRip-AVC (The Rum Diary 2011 1080p Blu-Ray AVC DTS-HD MA 5.1-HDChina)
Видео: 1248x676 (16:9), 23.976 fps, AVC, ~2222 Kbps
Аудио: 48 kHz, AC3 Dolby Digital, 3/2 (L,C,R,l,r) + LFE ch, ~384 kbps RUS
Аудио: 48 kHz, AC3 Dolby Digital, 3/2 (L,C,R,l,r) + LFE ch, ~384 kbps ENG - отдельно
General
Unique ID : 190775448173925979762253918801211732284 (0x8F8603CBD8CA7A16AEE59B1E0E8CB13C)
Complete name : E:\Downloads\Romoviy dnevnik-dub.chopper887(AVC)\Romoviy dnevnik-dub.chopper887.mkv
Format : Matroska
File size : 2.18 GiB
Duration : 1h 59mn
Overall bit rate : 2 606 Kbps
Movie name : Romoviy dnevnik.chopper887
Encoded date : UTC 2012-02-05 09:01:53
Writing application : mkvmerge v4.8.0 ('I Got The...') сборка от May 24 2011 03:12:58
Writing library : libebml v1.2.0 + libmatroska v1.1.0

Video
ID : 1
Format : AVC
Format/Info : Advanced Video Codec
Format profile : High@L4.1
Format settings, CABAC : Yes
Format settings, ReFrames : 9 frames
Codec ID : V_MPEG4/ISO/AVC
Duration : 1h 59mn
Bit rate : 2 222 Kbps
Width : 1 248 pixels
Height : 676 pixels
Display aspect ratio : 16:9
Frame rate : 23.976 fps
Color space : YUV
Chroma subsampling : 4:2:0
Bit depth : 8 bits
Scan type : Progressive
Bits/(Pixel*Frame) : 0.110
Stream size : 1.82 GiB (83%)
Title : Romoviy dnevnik.chopper887
Writing library : x264 core 120 r2146 bcd41db
Encoding settings : cabac=1 / ref=9 / deblock=1:-2:-1 / analyse=0x3:0x133 / me=umh / subme=11 / psy=1 / psy_rd=1.00:0.10 / mixed_ref=1 / me_range=32 / chroma_me=1 / trellis=2 / 8x8dct=1 / cqm=0 / deadzone=21,11 / fast_pskip=0 / chroma_qp_offset=-3 / threads=12 / sliced_threads=0 / nr=0 / decimate=1 / interlaced=0 / bluray_compat=0 / constrained_intra=0 / bframes=8 / b_pyramid=2 / b_adapt=2 / b_bias=0 / direct=3 / weightb=1 / open_gop=0 / weightp=2 / keyint=250 / keyint_min=23 / scenecut=40 / intra_refresh=0 / rc_lookahead=80 / rc=2pass / mbtree=1 / bitrate=2222 / ratetol=1.0 / qcomp=0.60 / qpmin=0 / qpmax=69 / qpstep=4 / cplxblur=20.0 / qblur=0.5 / ip_ratio=1.40 / aq=1:1.00
Language : English

Audio
ID : 2
Format : AC-3
Format/Info : Audio Coding 3
Mode extension : CM (complete main)
Codec ID : A_AC3
Duration : 1h 59mn
Bit rate mode : Constant
Bit rate : 384 Kbps
Channel(s) : 6 channels
Channel positions : Front: L C R, Side: L R, LFE
Sampling rate : 48.0 KHz
Bit depth : 16 bits
Compression mode : Lossy
Stream size : 330 MiB (15%)
Title : Dub

Text #1
ID : 3
Format : UTF-8
Codec ID : S_TEXT/UTF8
Codec ID/Info : UTF-8 Plain Text
Title : Rus

Text #2
ID : 4
Format : UTF-8
Codec ID : S_TEXT/UTF8
Codec ID/Info : UTF-8 Plain Text
Title : Eng
pb.wtf



Скачать Ромовый дневник через торрент http://i29.fastpic.ru/big/2012/0125/46/563764263b5b04a42d2411039dc3ff46.jpg Скачать фильм Ромовый дневник через торрент бесплантно в хорошем качестве Описание: 1960-й год. Талантливый журналист Пол Кэмп, которого достала лживая глянцевая жизнь Нью-Йорка, бросает работу в престижном ... 4.9 10 9
Info! Золотая раздача, скачанное не засчитывается.
Торрент: Зарегистрирован [2012-02-08 12:48] · скачан: 246 раз
Статус: √ проверено
Размер: 2.51 GB
Как cкачать? Как скачать Ромовый дневник через торрент | qTorrent

% Раздел Тема Автор DL S | L
Фильмы [HD 720p, 1080p] (Хороший звук DUB, MVO) [ 11.55 GB ] Ромовый дневник / The Rum Diary [2011 BDRip 1080p от _denis_100] DUB AVO _denis_100 Скачать
1 | 0
Фильмы 2011 [ 1.37 GB ] Ромовый дневник / The Rum Diary [2011 HDRip лицензия] Чупачупсик Скачать
2 | 0
Фильмы [HD 720p, 1080p] (Хороший звук DUB, MVO) [ 10.45 GB ] Ромовый дневник / The Rum Diary [2011 BDRip 720p] diletant Скачать
1 | 0
Фильмы [HD 720p, 1080p] (Хороший звук DUB, MVO) [ 35.49 GB ] Ромовый Дневник / The Rum Diary [2011 Blu-ray 1080p] DUB Original Eng ACFIORENTINA Скачать
1 | 0
Фильмы (DVD фильмы) [ 7.31 GB ] Ромовый дневник / The Rum Diary [2011 DVD9] R5 voovaz Скачать
1 | 0
Фильмы 2011 [ 2.55 GB ] Ромовый дневник / The Rum Diary [2011 BDRip-AVC] ~Relizer~ Скачать
1 | 0
Фильмы [HD 720p, 1080p] (Хороший звук DUB, MVO) [ 14.33 GB ] Ромовый дневник / The Rum Diary [2011 BDRip ] taygubay Скачать
1 | 0

28-11-2019 20:33  

Отключить всю рекламу на сайте

08-02-2012 14:38 Ромовый дневник Скачать торрент  

огромное спасибо!!!!!!!!!!!:) давно ждал этот фильм:)pb.wtf



    Дорогой пользователь! Огромная просьба, поблагодарите релизера, оцените раздачу и оставьте свои комментарий, если Вы скачали Ромовый дневник через торрент бесплатно! Внесите свою лепту в развитие PiratBit!
    Комментировать посты могут только пользователи прошедшие не сложную регистрацию
    Показать сообщения:    

    Ромовый дневник через торрент
    Скачать бесплатно Ромовый дневник
    Ромовый дневник скачать торрент
    Ромовый дневник смотреть онлайн
    Cкачать фильм Ромовый дневник бесплатно
    Ромовый дневник скачать торрент в хорошем качестве
    Ромовый дневник смотреть онлайн бесплатно в хорошем качестве


    Вы не можете начинать темы
    Вы не можете отвечать на сообщения
    Вы не можете редактировать свои сообщения
    Вы не можете удалять свои сообщения
    Вы не можете голосовать в опросах
    Вы не можете прикреплять файлы к сообщениям
    Вы можете скачивать файлы