1 сезон

3 сезон

iTunes

1

Line

MVO

iTunes

13

1 сезон

RePack

30

Deluxe

pack

Лицензия

ВАЖНО

ИГРА 18+

pack

RePack

MK11

RePack

jed

RePack

fifa19

RePack

RDR2

RePack

NEED FOR SPEED™ PAYBACK

4 сезон

9 сезон

Бесстыжие 9 сезон

Все сериалы

все сериалы на PB.wtf

RePack

FAR CRY 5

Anonymous, добрый вечер, мы катастрофически не успеваем собрать деньги на оплату серверов, помогите нам пожалуйста 5,10,15р., для нас важна любая помощь . В качестве благодарности мы отключим Вам всю рекламу на сайте (укажите свой ник в строку Ваше имя)!

×
  
Magnet ссылка

Сначала любовь, потом свадьба / Love, Wedding, Marriage (Дермот Малруни / Dermot Mulroney) [2011, мелодрама, комедия, DVD5] R5 pb.wtf

Сначала любовь, потом свадьба через торрент pb.wtf

Размер: 4.26 GB | Добавлен: 9 лет 5 мес. назад | Торрент скачан:105 раз
Скачать  

08-02-2012 21:14 Сначала любовь, потом свадьба Скачать торрент  

[font="Georgia"]
Сначала любовь, потом свадьба / Love, Wedding, Marriage
«Here comes the ride.»
Страна: США
Студия: Chydzik Media Group, First Wedding Productions, Voodoo Production Services
Жанр: мелодрама, комедия
Год выпуска: 2011
Мировая премьера: 3 июня 2011
Российская премьера: 19 января 2012
Дата выхода DVD: 9 февраля 2012
Продолжительность: 01:26:27
Перевод: Профессиональный (дублированный) [Лицензия]
Cубтитры: нет
Режиссер: Дермот Малруни / Dermot Mulroney
В ролях: Мэнди Мур, Келлан Латс, Джеймс Бролин, Джейн Сеймур, Джессика Зор, Майкл Уэстон, Марта Жмуда, Ричард Рейд, Кристофер Ллойд, Алексис Денисоф
Описание: Ева Далтон — успешный брачный агент, чья философия брака основывается на 30-ти летнем браке ее родителей, однако внезапно родители подают на развод, и это переворачивает мир Евы. Вместе с сестрой они решают во что бы то ни стало предотвратить развод родителей.
Бонусы: нет

Релиз группы:
Качество: DVD5 R5
Формат: DVD-Video
Видео кодек: MPEG2
Аудио кодек: AC3
Видео: PAL 16:9 (720x576(0.612)) MPEG Video, 25,000 кадр/сек, 6348 Кбит/сек
Аудио: Russian (Dolby AC3, 6 ch) 384 Кбит/сек, 48,0 КГц



Title:
Size: 4.26 Gb ( 4 463 392 KBytes ) - DVD-5
Enabled regions: 1, 2, 3, 4, 5, 6, 7, 8

VTS_01 :
Play Length: 00:00:08
Video: PAL 4:3 (720x576) VBR

VTS_02 :
Play Length: 00:00:13
Video: PAL 16:9 (720x576) VBR, Auto Pan&Scan

VTS_03 :
Play Length: 01:26:27
Video: PAL 16:9 (720x576) VBR, Auto Pan&Scan
Audio:
Russian (Dolby AC3, 6 ch)

VTS_04 :
Play Length: 00:02:08+00:01:58+00:01:12
Video: PAL 16:9 (720x576) VBR, Auto Pan&Scan
Audio:
English (Dolby AC3, 2 ch)
Subtitles:
English

VTS_05 :
Play Length: 00:00:15
Video: PAL 4:3 (720x576) VBR
Audio:
English (Dolby AC3, 2 ch)

Menu Video:
PAL 4:3 (720x576) VBR
Auto Pan&Scan, Auto Letterboxed
Menu Russian Language Unit :
Root Menu
Chapter (PTT) Menu
Angle menu
Общее
Полное имя : G:\Новинки 2012\Snachala.ljubov.potom.svadba.2011.DVD5\VIDEO_TS\VTS_03_2.VOB
Формат : MPEG-PS
Размер файла : 1024 Мбайт
Продолжительность : 20 м.
Режим общего битрейта : Переменный
Общий поток : 6869 Кбит/сек

Видео
Идентификатор : 224 (0xE0)
Формат : MPEG Video
Версия формата : Version 2
Профиль формата : Main@Main
Параметр BVOP формата : Да
Параметр матрицы формата : Выборочная
Параметр GOP формата : M=3, N=15
Продолжительность : 20 м.
Вид битрейта : Переменный
Битрейт : 6348 Кбит/сек
Максимальный битрейт : 8000 Кбит/сек
Ширина : 720 пикселей
Высота : 576 пикселей
Соотношение сторон : 16:9
Частота кадров : 25,000 кадров/сек
Стандарт вещания : PAL
Цветовое пространство : YUV
Субдискретизация насыщенности : 4:2:0
Битовая глубина : 8 бит
Тип развёртки : Чересстрочная
Порядок развёртки : Верхнее поле первое
Метод сжатия : С потерями
Бит/(Пиксели*Кадры) : 0.612
Размер потока : 946 Мбайт (92%)

Аудио
Идентификатор : 189 (0xBD)-128 (0x80)
Формат : AC-3
Формат/Информация : Audio Coding 3
Расширение режима : CM (complete main)
Режим смешивания : DVD-Video
Продолжительность : 20 м.
Вид битрейта : Постоянный
Битрейт : 384 Кбит/сек
Каналы : 6 каналов
Расположение каналов : Front: L C R, Side: L R, LFE
Частота : 48,0 КГц
Битовая глубина : 16 бит
Метод сжатия : С потерями
Задержка видео : -808 мс.
Размер потока : 57,2 Мбайт (6%)










pb.wtf



Скачать Сначала любовь, потом свадьба через торрент http://i4.imageban.ru/out/2012/02/08/13604299ed70f4ed248806940f3d2ab3.jpg Скачать фильм Сначала любовь, потом свадьба через торрент бесплантно в хорошем качестве Описание: Ева Далтон — успешный брачный агент, чья философия брака основывается на 30-ти летнем браке ее родителей, однако внезапно ... 4.8 10 4
Info! Золотая раздача, скачанное не засчитывается.
Торрент: Зарегистрирован [2012-02-08 21:14] · скачан: 105 раз
Статус: √ проверено
Размер: 4.26 GB
Как cкачать? Как скачать Сначала любовь, потом свадьба через торрент | UTorrent

28-11-2019 20:33  

Отключить всю рекламу на сайте

    Дорогой пользователь! Огромная просьба, поблагодарите релизера, оцените раздачу и оставьте свои комментарий, если Вы скачали Сначала любовь, потом свадьба через торрент бесплатно! Внесите свою лепту в развитие PiratBit!
    Комментировать посты могут только пользователи прошедшие не сложную регистрацию
    Показать сообщения:    

    Сначала любовь, потом свадьба через торрент
    Скачать бесплатно Сначала любовь, потом свадьба
    Сначала любовь, потом свадьба скачать торрент
    Сначала любовь, потом свадьба смотреть онлайн
    Cкачать фильм Сначала любовь, потом свадьба бесплатно
    Сначала любовь, потом свадьба скачать торрент в хорошем качестве
    Сначала любовь, потом свадьба смотреть онлайн бесплатно в хорошем качестве


    Вы не можете начинать темы
    Вы не можете отвечать на сообщения
    Вы не можете редактировать свои сообщения
    Вы не можете удалять свои сообщения
    Вы не можете голосовать в опросах
    Вы не можете прикреплять файлы к сообщениям
    Вы можете скачивать файлы