Всегда рабочее зеркало без VPN и Proxy просто перед .vidak.icu напиши любое слово или цифру, Пример http://28dd.vidak.icu

Лицензия

MVO

1 сезон

1

1 сезон

iTunes

1 сезон

13

1 сезон

Deluxe

pack

Рекомендуем

Repack

30

ВАЖНО

RePack

MK11

RePack

jed

RePack

fifa19

RePack

RDR2

RePack

NEED FOR SPEED™ PAYBACK

Кинопоиск HD

6 сезон

 Острые козырьки 6 сезон

Все сериалы

все сериалы на PB.wtf

RePack

FAR CRY 5
  
Magnet ссылка

Чудовищное извержение (ТВ) / Super Eruption (Мэтт Кодд) [2011 г., катастрофа, DVDRip] pb.wtf

Чудовищное извержение через торрент pb.wtf

Размер: 705 MB | Добавлен: 10 лет назад | Торрент скачан:199 раз
Смотреть онлайн Чудовищное извержение | Скачать    Ребята, помогите собрать деньги на оплату серверов!!!

09-02-2012 22:28 Чудовищное извержение Скачать торрент  



Чудовищное извержение (ТВ) / Super Eruption
Год выпуска: 2011
Страна: США
Жанр: катастрофа
Продолжительность: 01:24:05
Перевод: Профессиональный (многоголосый, закадровый)ТВ3
Режиссер: Мэтт Кодд
Продюссер: Рик Ниш, Джеффри Бич, Майкл Джейкобс
Сценарий: Рафаэль Джордан
В ролях: Ричард Берджи, Джульетт Обри, МайАнна Бёринг, Питер Фоллебрегт, Сара Браун, Оуэн Дэвис, Дэниэл С. Эрлих, Lincoln Fragner, Эмилиа Клэйн, Шелли Варод
Описание: Вулкан, дремавший несколько тысячелетий, начинает внезапное извержение в Йеллоусонском национальном парке. Пожарный Чарли Янг и вулканолог Кейт объединяют усилия в попытке предотвратить распространение ядовитого облака, угрожающего погрузить Землю в царство вечной зимы...

Качество: DVDRip
Формат: AVI
Видео кодек: MPEG4
Аудио кодек: MP3
Видео: MPEG4, XviD, 640x352 (16/9), 25.000 fps, 1 035 Kbps (0.184 bit/pixel)
Аудио#1: MP3 , 48.0 KHz, 2 ch, 128 Kbps, CBR


D:\Кино\Суперизвержение.avi
General
Complete name : D:\Кино\Суперизвержение.avi
Format : AVI
Format/Info : Audio Video Interleave
File size : 705 MiB
Duration : 1h 24mn
Overall bit rate : 1 172 Kbps
Movie name : Суперизвержение / Чудовищное извержение / Super Eruption (2011)
Writing application : VirtualDubMod 1.5.10.2 (build 2540/release)
Writing library : VirtualDubMod build 2540/release
Video #0
ID : 0
Format : MPEG-4 Visual
Format profile : Advanced [email protected]
Format settings, BVOP : 1
Format settings, QPel : No
Format settings, GMC : No warppoints
Format settings, Matrix : Default (H.263)
Codec ID : XVID
Codec ID/Hint : XviD
Duration : 1h 24mn
Bit rate : 1 035 Kbps
Width : 640 pixels
Height : 352 pixels
Display aspect ratio : 16:9
Frame rate : 25.000 fps
Color space : YUV
Chroma subsampling : 4:2:0
Bit depth : 8 bits
Scan type : Progressive
Compression mode : Lossy
Bits/(Pixel*Frame) : 0.184
Stream size : 622 MiB (88%)
Writing library : XviD 58
Audio #1
ID : 1
Format : MPEG Audio
Format version : Version 1
Format profile : Layer 3
Mode : Joint stereo
Mode extension : MS Stereo
Codec ID : 55
Codec ID/Hint : MP3
Duration : 1h 24mn
Bit rate mode : Constant
Bit rate : 128 Kbps
Channel(s) : 2 channels
Sampling rate : 48.0 KHz
Compression mode : Lossy
Stream size : 77.0 MiB (11%)
Alignment : Aligned on interleaves
Interleave, duration : 40 ms (1.00 video frame)
Interleave, preload duration : 504 ms
Title : Профессиональный (многоголосый, закадровый) ТВ3





pb.wtf



Скачать Чудовищное извержение через торрент http://i25.fastpic.ru/big/2011/0728/5f/85b278d7e0ad03da24dcd0b25c850a5f.jpg Скачать, смотреть онлайн Чудовищное извержение бесплантно в хорошем качестве Описание: Вулкан, дремавший несколько тысячелетий, начинает внезапное извержение в Йеллоусонском национальном парке. Пожарный Чарли Янг и ... 4.3 10 13
Info! Золотая раздача, скачанное не засчитывается.
Торрент: Зарегистрирован [2012-02-09 22:28] · скачан: 199 раз
Статус: √ проверено
Размер: 705 MB
Как cкачать? Как скачать Чудовищное извержение через торрент | UTorrent

% Раздел Тема Автор DL S | L
Фильмы 2011 [ 705 MB ] Чудовищное извержение / Super Eruption [2011 DVDRip] shuller Скачать
1 | 0

28-11-2019 20:33  

Отключить вcю реклaмy на сайте

    Дорогой пользователь! Огромная просьба, поблагодарите релизера, оцените раздачу и оставьте свои комментарий, если Вы скачали Чудовищное извержение через торрент бесплатно!
    Комментировать посты могут только пользователи прошедшие не сложную регистрацию
    Показать сообщения:    

    Чудовищное извержение через торрент
    Скачать бесплатно Чудовищное извержение
    Чудовищное извержение скачать торрент
    Чудовищное извержение смотреть онлайн
    Cкачать фильм Чудовищное извержение бесплатно
    Чудовищное извержение скачать торрент в хорошем качестве
    Чудовищное извержение смотреть онлайн бесплатно в хорошем качестве


    Вы не можете начинать темы
    Вы не можете отвечать на сообщения
    Вы не можете редактировать свои сообщения
    Вы не можете удалять свои сообщения
    Вы не можете голосовать в опросах
    Вы не можете прикреплять файлы к сообщениям
    Вы можете скачивать файлы