2 сезон

iTunes

MVO

1

2 сезон

iTunes

iTunes

1 сезон

RePack

30

Новинка

ВАЖНО

ИГРА 18+

pack

RePack

MK11
pack

Легкие деньги

RePack

jed

RePack

fifa19

RePack

RDR2

RePack

NEED FOR SPEED™ PAYBACK

4 сезон

9 сезон

Бесстыжие 9 сезон

Все сериалы

все сериалы на PB.wtf

RePack

FAR CRY 5

Anonymous, доброй ночи, мы не успеваем собрать деньги на оплату серверов за декабрь и январь, помогите нам пожалуйста в это трудное время. В качестве благодарности мы отключим Вам всю рекламу на сайте (укажите свой ник в строку Ваше имя)!

×
  
Magnet ссылка

Мушкетеры 3D / The Three Musketeers 3D (Пол У. С. Андерсон) [2011 г., боевик, приключения,BDRip1080p-AVC] Anamorph OverUnder pb.wtf

Мушкетеры 3D через торрент pb.wtf

Размер: 8.42 GB | Добавлен: 8 лет 11 мес. назад | Торрент скачан:585 раз
Скачать  

10-02-2012 12:03 Мушкетеры 3D Скачать торрент  

[font="Georgia"]Мушкетеры 3D / The Three Musketeers 3D

[font="Georgia"]Год выпуска: 2011
[font="Georgia"]Страна: США
[font="Georgia"]Жанр: боевик, приключения
[font="Georgia"]Продолжительность: 01:50:31
[font="Georgia"]Перевод: Профессиональный (полное дублирование)

[font="Georgia"]Режиссер: Пол У. С. Андерсон
[font="Georgia"]Продюссер: Пол У. С. Андерсон, Джереми Болт, Роберт Кюльзер
[font="Georgia"]Сценарий: Алекс Литвак, Эндрю Дэвис, Александр Дюма отец

[font="Georgia"]Бюджет: $75 000 000

детям до 13 лет просмотр не желателен
Мировой рейтинг IMDB 6.00 (14 475)


[font="Georgia"]В ролях: Логан Лерман, Милла Йовович, Мэтью Макфейден, Рэй Стивенсон, Люк Эванс, Мадс Миккельсен, Габриэлла Уайлд, Джеймс Корден, Джуно Темпл, Фредди Фокс,
Роли дублировали:
Даниил Щебланов, Ирина Киреева, Владимир Зайцев, Александр Груздев, Алексей Мясников, Илья Бледный, Василий Дахненко, Олег Щербинин, Лина Иванова, Антон Колесников, Лиза Мартиросова, Николай Быстров, Пётр Иващенко

[font="Georgia"]Описание: Молодой д’Артаньян покинул родной дом и отправился в Париж, надеясь на место в полку мушкетёров. По случайности в один день он обидел сразу троих мушкетёров — Атоса, Портоса и Арамиса — и получил от всех троих вызовы на дуэль. Но дуэль была прервана появлением гвардейцев кардинала, которые хотели арестовать их за нарушение указа о запрете дуэлей. Д’Артаньян и три мушкетера победили превосходящего противника и стали друзьями. Теперь они должны остановить злобного Кардинала Ришелье и столкнутся с герцогом Бэкингемом, и предательницей Миледи Де Винтер.

[font="Georgia"]Доп. информация: Формат 3d: Anamorph OverUnder

Релиз благодаря(ash61)

[font="Georgia"]Качество: BDRip
[font="Georgia"]Формат: MKV
[font="Georgia"]Видео кодек: AVC
[font="Georgia"]Аудио кодек: AC3
[font="Georgia"]Видео: AVC / 1920х1080p / 23,976 fps / 9670 Кбит/сек(16:9)/0.195bit/pixel
[font="Georgia"]Аудио#1: Русский / AC-3/ 384 Кбит/сек/ 6 канала(ов)(Front: L C R, Side: L R, LFE)/48,0 КГц
[font="Georgia"]Аудио#2: Английский / AC3 / 48 KHz / 6 канала(ов)( Front: L C R, Side: L R, LFE)/ 640 Kbps
Общее
Уникальный идентификатор : 230968983300875044621939648119043628182 (0xADC30213EA4FD6DF860AC90C99899C96)
Полное имя : D:\DVD\TheThreeMusketeers(3D)2011.halfOU.(ash61).mkv
Формат : Matroska
Размер файла : 8,42 Гбайт
Продолжительность : 1 ч. 50 м.
Общий поток : 10,9 Мбит/сек
Название фильма : The Three Musketeers (3D) 2011 (Ash61)
Дата кодирования : UTC 2012-02-10 10:00:20
Программа кодирования : mkvmerge v3.4.0 ('Rapunzel') сборка от May 15 2010 09:38:20
Библиотека кодирования : libebml v0.8.0 + libmatroska v0.9.0

Видео
Идентификатор : 1
Формат : AVC
Формат/Информация : Advanced Video Codec
Профиль формата : High@L4.1
Параметр CABAC формата : Да
Параметр ReFrames формата : 4 кадры
Идентификатор кодека : V_MPEG4/ISO/AVC
Продолжительность : 1 ч. 50 м.
Битрейт : 9670 Кбит/сек
Ширина : 1920 пикс.
Высота : 1080 пикс.
Соотношение сторон : 16:9
Частота кадров : 23,976 кадр/сек
Цветовое пространство : YUV
Подвыборка цветности : 4:2:0
Битовая глубина : 8 бит
Тип развёртки : Прогрессивная
Бит/(Пиксели*Кадры) : 0.195
Размер потока : 7,47 Гбайт (89%)
Заголовок : BDrip by Ash61
Библиотека кодирования : x264 core 119 r2106 07efeb4
Настройки программы : cabac=1 / ref=4 / deblock=1:-3:-3 / analyse=0x3:0x113 / me=umh / subme=9 / psy=1 / psy_rd=1.00:0.15 / mixed_ref=1 / me_range=16 / chroma_me=1 / trellis=2 / 8x8dct=1 / cqm=0 / deadzone=21,11 / fast_pskip=1 / chroma_qp_offset=-3 / threads=3 / sliced_threads=0 / nr=0 / decimate=1 / interlaced=0 / bluray_compat=0 / constrained_intra=0 / bframes=6 / b_pyramid=2 / b_adapt=2 / b_bias=0 / direct=3 / weightb=1 / open_gop=0 / weightp=2 / keyint=250 / keyint_min=23 / scenecut=40 / intra_refresh=0 / rc_lookahead=60 / rc=crf / mbtree=1 / crf=18.0 / qcomp=0.70 / qpmin=0 / qpmax=69 / qpstep=4 / vbv_maxrate=40000 / vbv_bufsize=40000 / crf_max=0.0 / nal_hrd=none / ip_ratio=1.40 / aq=1:0.70

Аудио #1
Идентификатор : 2
Формат : AC-3
Формат/Информация : Audio Coding 3
Расширение режима : CM (complete main)
Идентификатор кодека : A_AC3
Продолжительность : 1 ч. 50 м.
Вид битрейта : Постоянный
Битрейт : 384 Кбит/сек
Канал(ы) : 6 канала(ов)
Расположение каналов : Front: L C R, Side: L R, LFE
Частота : 48,0 КГц
Битовая глубина : 16 бит
Метод сжатия : С потерями
Размер потока : 304 Мбайт (4%)

Аудио #2
Идентификатор : 3
Формат : AC-3
Формат/Информация : Audio Coding 3
Расширение режима : CM (complete main)
Идентификатор кодека : A_AC3
Продолжительность : 1 ч. 50 м.
Вид битрейта : Постоянный
Битрейт : 640 Кбит/сек
Канал(ы) : 6 канала(ов)
Расположение каналов : Front: L C R, Side: L R, LFE
Частота : 48,0 КГц
Битовая глубина : 16 бит
Метод сжатия : С потерями
Размер потока : 506 Мбайт (6%)
Язык : English

Меню
00:00:00.000 : :01
00:06:09.786 : :02
00:12:20.406 : :03
00:17:31.592 : :04
00:23:52.181 : :05
00:31:28.678 : :06
00:35:56.488 : :07
00:42:31.549 : :08
00:47:04.613 : :09
00:53:17.319 : :10
00:59:14.634 : :11
01:04:40.043 : :12
01:08:33.109 : :13
01:14:24.418 : :14
01:21:04.610 : :15
01:27:36.918 : :16
01:36:09.681 : :17
01:42:27.433 : :18




pb.wtf



Скачать Мушкетеры 3D через торрент http://i27.fastpic.ru/big/2012/0209/ab/b50d4b036f85644560229523098128ab.gif Скачать фильм Мушкетеры 3D через торрент бесплантно в хорошем качестве Описание: Молодой д’Артаньян покинул родной дом и отправился в Париж, надеясь на место в полку мушкетёров. По случайности в один день ... 10 10 8
Info! Золотая раздача, скачанное не засчитывается.
Торрент: Зарегистрирован [2012-02-10 12:03] · скачан: 585 раз
Статус: √ проверено
Размер: 8.42 GB
Как cкачать? Как скачать Мушкетеры 3D через торрент | UTorrent



Последний раз редактировалось: slaventi-69 (2012-02-10 13:18), всего редактировалось 3 раз(а)

28-11-2019 20:33  

Отключить всю рекламу на сайте

10-02-2012 12:07 Мушкетеры 3D Скачать торрент  

Прошлую раздачу почему-то поглотили, только чем?
Мне нужно было только звук воткнуть и перезалить, теперь всем перекачивать.
За неудобства извините - вина не моя.pb.wtf



10-02-2012 13:39 Мушкетеры 3D Скачать торрент  

а где сид?pb.wtf



10-02-2012 14:03 Мушкетеры 3D Скачать торрент  

дайте скачать...pb.wtf



10-02-2012 15:07 Мушкетеры 3D Скачать торрент  

Rip мой, раздаю сам.pb.wtf



10-02-2012 15:14 Мушкетеры 3D Скачать торрент  

а нельзя без черных полос выкладывать бо плазма этого нелюбитpb.wtf



10-02-2012 15:24 Мушкетеры 3D Скачать торрент  

Если убрать полосы то картинку обрежет по краям.pb.wtf



10-02-2012 21:03 Мушкетеры 3D Скачать торрент  

а как без 3D он же без полос был и вообще с узкой рамкой эфект не тотpb.wtf



12-02-2012 08:51 Мушкетеры 3D Скачать торрент  

Сколько об этих полосах писали , найдите и прочитайте в чем разница. С другой стороны ваше решение качать или нет. Сделайте как вам больше нравиться и выложите сюда, вам только спасибо скажут. Я вылаживаю то что есть у меня. Так что удачи в хороших релизах.pb.wtf



10-04-2015 12:55 Мушкетеры 3D Скачать торрент  

Дайте скачать!!!pb.wtf



29-04-2015 18:43 Мушкетеры 3D Скачать торрент  

дайте скоростиpb.wtf



    Дорогой пользователь! Огромная просьба, поблагодарите релизера, оцените раздачу и оставьте свои комментарий, если Вы скачали Мушкетеры 3D через торрент бесплатно! Внесите свою лепту в развитие PiratBit!
    Комментировать посты могут только пользователи прошедшие не сложную регистрацию
    Показать сообщения:    

    Мушкетеры 3D через торрент
    Скачать бесплатно Мушкетеры 3D
    Мушкетеры 3D скачать торрент
    Мушкетеры 3D смотреть онлайн
    Cкачать фильм Мушкетеры 3D бесплатно
    Мушкетеры 3D скачать торрент в хорошем качестве
    Мушкетеры 3D смотреть онлайн бесплатно в хорошем качестве


    Вы не можете начинать темы
    Вы не можете отвечать на сообщения
    Вы не можете редактировать свои сообщения
    Вы не можете удалять свои сообщения
    Вы не можете голосовать в опросах
    Вы не можете прикреплять файлы к сообщениям
    Вы можете скачивать файлы