Ссылка на приватное зеркало нашего сайта всего за 1$. Внимание количество ограничено!!!

2 сезон

iTunes

1 сезон

1

2 сезон

2 сезон

iTunes

1 сезон

RePack

30

Ultimate

ВАЖНО

ИГРА 18+

pack

RePack

MK11
pack

Забери бонус

RePack

jed

!!Акция!!

Alien_Rage

RePack

fifa19

RePack

Assassins Creed: Odyssey

RePack

NEED FOR SPEED™ PAYBACK

4 сезон

9 сезон

Бесстыжие 9 сезон

Все сериалы

все сериалы на PB.wtf

RePack

FAR CRY 5
  

Шерлок. Разоблачение / Sherlock. Uncovered (Пол МакГиган) [2012, документальный, HDRip] Создание 2 сезона Шерлока (MVO AlexFilm) pb.wtf

Шерлок. Разоблачение через торрент pb.wtf

Размер: 201 MB | Добавлен: 8 лет 9 мес. назад | Торрент скачан:35 раз
Скачать  

11-02-2012 15:39 Шерлок. Разоблачение Скачать торрент  

Шерлок. Разоблачение / Sherlock. Uncovered
Год выпуска: 2012
Страна: Великобритания
Жанр: документальный, фильм о фильме
Продолжительность: 00:19:13
Перевод: Профессиональный (многоголосый, закадровый) (AlexFilm)
Cубтитры: Русские вшитые (на надписи)
Режиссер: Пол МакГиган
В ролях: Бенедикт Камбербэтч, Мартин Фриман, Эндрю Скотт, Лара Пулвер, Марк Гэтисс, Стивен Моффат, Сью Верчью, Пол МакГиган, Дэни Харгрейвс, Арвел Вин Джонс
Описание: "Шерлок. Разоблачение" (фильм о фильме). Фильм рассказывает о создании 2 сезона британского сериала Шерлок (Sherlock). Интервью с продюсерами и актёрами, кадры с места съёмок в Лондоне...
Качество: BDRip
Формат: AVI
Видео кодек: XviD
Аудио кодек: MP3
Видео: 624x352 (16:9), 25 fps, XviD build 50 ~1192 kbps avg, 0.22 bit/pixel
Аудио Rus: 48 kHz, MPEG Layer 3, 2 ch, ~128.00 kbps avg
Аудио Eng: 48 kHz, MPEG Layer 3, 2 ch, ~128.00 kbps avg
Релиз от: AlexFilm
Перевод: Леонид Дмитриев
Роли озвучивали: Евгения Тихонова, Александр Дасевич, Михаил Суслов, Константин Погодаев
Хардсаб на надписи: Vlad85 и DiamonD
Общее
Полное имя : F:\Раздачи\Раздачи\Sherlock.Uncovered.BDRip.Rus.Eng.AlexFilm.avi
Формат : AVI
Формат/Информация : Audio Video Interleave
Размер файла : 201 Мбайт
Продолжительность : 19 м.
Общий поток : 1464 Кбит/сек
Программа кодирования : VirtualDubMod 1.5.10.2 (build 2542/release)
Библиотека кодирования : VirtualDubMod build 2542/release

Видео
Идентификатор : 0
Формат : MPEG-4 Visual
Профиль формата : Advanced Simple@L5
Параметр BVOP формата : 1
Параметр QPel формата : Нет
Параметр GMC формата : Без точки перехода
Параметр матрицы формата : Default (MPEG)
Идентификатор кодека : XVID
Идентификатор кодека/Подсказка : XviD
Продолжительность : 19 м.
Битрейт : 1193 Кбит/сек
Ширина : 624 пикселя
Высота : 352 пикселя
Соотношение сторон : 16:9
Частота кадров : 25,000 кадров/сек
Цветовое пространство : YUV
Субдискретизация насыщенности : 4:2:0
Битовая глубина : 8 бит
Тип развёртки : Прогрессивная
Метод сжатия : С потерями
Бит/(Пиксели*Кадры) : 0.217
Размер потока : 164 Мбайт (82%)
Библиотека кодирования : XviD 1.2.1 (UTC 2008-12-04)

Аудио #1
Идентификатор : 1
Формат : MPEG Audio
Версия формата : Version 1
Профиль формата : Layer 3
Режим : Joint stereo
Расширение режима : MS Stereo
Идентификатор кодека : 55
Идентификатор кодека/Подсказка : MP3
Продолжительность : 19 м.
Вид битрейта : Постоянный
Битрейт : 128 Кбит/сек
Каналы : 2 канала
Частота : 48,0 КГц
Метод сжатия : С потерями
Размер потока : 17,6 Мбайт (9%)
Выравнивание : Соединение по промежуткам
Продолжительность промежутка : 40 мс. (1,00 видеокадр)
Время предзагрузки промежутка : 504 мс.

Аудио #2
Идентификатор : 2
Формат : MPEG Audio
Версия формата : Version 1
Профиль формата : Layer 3
Режим : Joint stereo
Расширение режима : MS Stereo
Идентификатор кодека : 55
Идентификатор кодека/Подсказка : MP3
Продолжительность : 19 м.
Вид битрейта : Постоянный
Битрейт : 128 Кбит/сек
Каналы : 2 канала
Частота : 48,0 КГц
Метод сжатия : С потерями
Размер потока : 17,6 Мбайт (9%)
Выравнивание : Соединение по промежуткам
Продолжительность промежутка : 40 мс. (1,00 видеокадр)
Время предзагрузки промежутка : 504 мс.
pb.wtf



Скачать Шерлок. Разоблачение через торрент http://pic.kartinco.top/images/2011/2jd5djhyp6.jpg Скачать фильм Шерлок. Разоблачение через торрент бесплантно в хорошем качестве Описание: "Шерлок. Разоблачение" (фильм о фильме). Фильм рассказывает о создании 2 сезона британского сериала Шерлок (Sherlock). Интервью с ... 5 10 5
Info! Золотая раздача, скачанное не засчитывается.
Торрент: Зарегистрирован [2012-02-11 15:39] · скачан: 35 раз
Статус: √ проверено
Размер: 201 MB
Как cкачать? Как скачать Шерлок. Разоблачение через торрент | qTorrent

28-11-2019 20:33  

Отключить всю рекламу на сайте

    Дорогой пользователь! Огромная просьба, поблагодарите релизера, оцените раздачу и оставьте свои комментарий, если Вы скачали Шерлок. Разоблачение через торрент бесплатно! Внесите свою лепту в развитие PiratBit!
    Комментировать посты могут только пользователи прошедшие не сложную регистрацию
    Показать сообщения:    

    Шерлок. Разоблачение через торрент
    Скачать бесплатно Шерлок. Разоблачение
    Шерлок. Разоблачение скачать торрент
    Шерлок. Разоблачение смотреть онлайн
    Cкачать фильм Шерлок. Разоблачение бесплатно
    Шерлок. Разоблачение скачать торрент в хорошем качестве
    Шерлок. Разоблачение смотреть онлайн бесплатно в хорошем качестве


    Вы не можете начинать темы
    Вы не можете отвечать на сообщения
    Вы не можете редактировать свои сообщения
    Вы не можете удалять свои сообщения
    Вы не можете голосовать в опросах
    Вы не можете прикреплять файлы к сообщениям
    Вы можете скачивать файлы