новый адрес
Мега распродажа FORZA HORIZON 4 ULTIMATE+ВСЕ DLC+ОНЛАЙН всего за 499р. 349 руб. (супер цена). Внимание количество ограничено!!!

iTunes

1+1

iTunes

мы

iTunes

1

iTunes

Чернобыль

iTunes

Ральф против интернета

Лицензия

ПШазам

Лицензия

Игра престолов

Лицензия

30
pack

ВАЖНО

!!Акция!!

Alien_RageХит недели

RePack

Resident Evil 21

ИГРА 18+

pack

RePack

Metro:Exodus

!!Акция!!

Alien_Rage

RePack

fifa19

RePack

Assassins Creed: Odyssey

RePack

NEED FOR SPEED™ PAYBACK

3 сезон

9 сезон

Бесстыжие 9 сезон

Все сериалы

все сериалы на PB.wtf

RePack

FAR CRY 5
Ребята, катастрофически не хватает 1900р. для оплаты серверов за Октябрь (всвязи с блокировками трафик упал в 3 раза), 1-2р., выручайте.
  

Инспектор ГАИ (Эльдор Уразбаев) [1982 г., драма, DVDRip-AVC] pb.wtf

Инспектор ГАИ через торрент pb.wtf

Размер: 1.45 GB | Добавлен: 7 лет 9 мес. назад | Торрент скачан:113 раз
Скачать  

11-02-2012 21:09 Инспектор ГАИ Скачать торрент  

Инспектор ГАИГод выпуска: 1982
Страна: СССР
Жанр: драма
Продолжительность: 01:15:35
Перевод: Не требуется

Режиссер: Эльдор Уразбаев
Сценарий: Александр Бородянский
Премьера в мире: 30 мая 1983

В ролях: Сергей Никоненко, Никита Михалков, Олег Ефремов, Марина Левтова, Николай Парфенов, Виктор Ильичев, Раиса Рязанова, Юрий Кузьменков, Николай Засухин, Евгений Перов, Анатолий Ганшин, Данила Петров

Описание: Скромность и принципиальность приводит инспектора ГАИ Петра Зыкина к конфликту с начальником станции технического обслуживания Труновым, который, нарушив правила дорожного движения, пытается воспользоваться своими связями и «поставить на место» не в меру ретивого милиционера. Однако ничто не может заставить Зыкина изменить своим принципам: ни связи, ни положение человека, совершившего правонарушение…

Качество: DVDRip-AVC
Формат: MKV
Видео кодек: H.26x
Аудио кодек: AC3
Видео: 696x552 @ 736x552 (4:3), 25.000 fps, 2294 kbps, 0.239 bit/pixel
Аудио#1: 48 kHz, AC3 5.1, 448.00 kbps

&
Общее
Уникальный идентификатор : 235760828954955547748021931030281155448 (0xB15DE24F1EF9B6A6BCE93556D8877378)
Полное имя : D:\Downloads - Torrents\Inspektor GAI.1982.HQDVDRip-AVC.PT.by tise.mkv
Формат : Matroska
Версия формата : Version 2
Размер файла : 1,45 Гбайт
Продолжительность : 1 ч. 15 м.
Общий поток : 2742 Кбит/сек
Название фильма : Инспектор ГАИ (1982) DVDRip-AVC rip by tise
Дата кодирования : UTC 2012-02-11 18:31:41
Программа кодирования : mkvmerge v5.2.1 ('A Far Off Place') built on Jan 2 2012 23:21:10
Библиотека кодирования : libebml v1.2.3 + libmatroska v1.3.0

Видео
Идентификатор : 1
Формат : AVC
Формат/Информация : Advanced Video Codec
Профиль формата : High@L4.1
Параметр CABAC формата : Да
Параметр ReFrames формата : 8 кадров
Режим смешивания : Header stripping
Идентификатор кодека : V_MPEG4/ISO/AVC
Продолжительность : 1 ч. 15 м.
Битрейт : 2294 Кбит/сек
Ширина : 696 пикселей
Высота : 552 пикселя
Соотношение сторон : 4:3
Частота кадров : 25,000 кадров/сек
Цветовое пространство : YUV
Субдискретизация насыщенности : 4:2:0
Битовая глубина : 8 бит
Тип развёртки : Прогрессивная
Бит/(Пиксели*Кадры) : 0.239
Размер потока : 1,18 Гбайт (82%)
Библиотека кодирования : x264 core 120 r2164 da19765
Настройки программы : cabac=1 / ref=8 / deblock=1:-3:-3 / analyse=0x3:0x133 / me=umh / subme=10 / psy=1 / psy_rd=1.00:0.10 / mixed_ref=1 / me_range=48 / chroma_me=1 / trellis=2 / 8x8dct=1 / cqm=0 / deadzone=21,11 / fast_pskip=0 / chroma_qp_offset=-3 / threads=6 / sliced_threads=0 / nr=0 / decimate=1 / interlaced=0 / bluray_compat=0 / constrained_intra=0 / bframes=7 / b_pyramid=2 / b_adapt=2 / b_bias=0 / direct=3 / weightb=1 / open_gop=0 / weightp=2 / keyint=250 / keyint_min=23 / scenecut=40 / intra_refresh=0 / rc_lookahead=40 / rc=2pass / mbtree=1 / bitrate=2294 / ratetol=1.0 / qcomp=0.60 / qpmin=10 / qpmax=51 / qpstep=4 / cplxblur=20.0 / qblur=0.5 / ip_ratio=1.40 / aq=1:1.00
Default : Да
Forced : Нет

Аудио
Идентификатор : 2
Формат : AC-3
Формат/Информация : Audio Coding 3
Расширение режима : CM (complete main)
Режим смешивания : Header stripping
Идентификатор кодека : A_AC3
Продолжительность : 1 ч. 15 м.
Вид битрейта : Постоянный
Битрейт : 448 Кбит/сек
Каналы : 6 каналов
Расположение каналов : Front: L C R, Side: L R, LFE
Частота : 48,0 КГц
Битовая глубина : 16 бит
Метод сжатия : С потерями
Размер потока : 242 Мбайт (16%)
Заголовок : оригинал
Язык : Russian
Default : Да
Forced : Нет
pb.wtf



Скачать Инспектор ГАИ через торрент http://pic.kartinco.top/images/2011/xlrp2lmeeu.png Скачать фильм Инспектор ГАИ через торрент бесплантно в хорошем качестве Описание: Скромность и принципиальность приводит инспектора ГАИ Петра Зыкина к конфликту с начальником станции технического обслуживания ... 10 10 2
Info! Золотая раздача, скачанное не засчитывается.
Торрент: Зарегистрирован [2012-02-11 21:09] · скачан: 113 раз
Статус: √ проверено
Размер: 1.45 GB
Как cкачать? Как скачать Инспектор ГАИ через торрент | qTorrent


>> Регистрируемся здесь <<






Отзывы и комментарии о схеме читаем и пишем здесь: ---> Отзывы и комментарии о схеме

Новые благодарочки в телеграм довольных пользователей:
скриншот   скриншот   скриншот   скриншот   скриншот
    Дорогой пользователь! Огромная просьба, поблагодарите релизера, оцените раздачу и оставьте свои комментарий, если Вы скачали Инспектор ГАИ через торрент бесплатно! Внесите свою лепту в развитие PiratBit!
    Комментировать посты могут только пользователи прошедшие не сложную регистрацию
    Показать сообщения:    

    Инспектор ГАИ через торрент
    Скачать бесплатно Инспектор ГАИ
    Инспектор ГАИ скачать торрент
    Инспектор ГАИ смотреть онлайн
    Cкачать фильм Инспектор ГАИ бесплатно
    Инспектор ГАИ скачать торрент в хорошем качестве
    Инспектор ГАИ смотреть онлайн бесплатно в хорошем качестве


    Вы не можете начинать темы
    Вы не можете отвечать на сообщения
    Вы не можете редактировать свои сообщения
    Вы не можете удалять свои сообщения
    Вы не можете голосовать в опросах
    Вы не можете прикреплять файлы к сообщениям
    Вы можете скачивать файлы