2 сезон

iTunes

MVO

1

2 сезон

iTunes

iTunes

1 сезон

RePack

30

Ultimate

ВАЖНО

ИГРА 18+

pack

RePack

MK11
pack

Легкие деньги

RePack

jed

RePack

fifa19

RePack

RDR2

RePack

NEED FOR SPEED™ PAYBACK

4 сезон

9 сезон

Бесстыжие 9 сезон

Все сериалы

все сериалы на PB.wtf

RePack

FAR CRY 5

Anonymous, доброе утро, мы не успеваем собрать деньги на оплату серверов за декабрь и январь, помогите нам пожалуйста в это трудное время. В качестве благодарности мы отключим Вам всю рекламу на сайте (укажите свой ник в строку Ваше имя)!

×
  
Magnet ссылка

Generation П (Виктор Гинзбург) [2011, Россия, Фантастика, драма, комедия, HDRip-AVC] pb.wtf

Generation П через торрент pb.wtf

Размер: 1.46 GB | Добавлен: 8 лет 11 мес. назад | Торрент скачан:257 раз
Скачать  

12-02-2012 12:49 Generation П Скачать торрент  



Generation П
«Культовый роман в кино»

Год выпуска: 2011
Страна: Россия
Жанр: фантастика, драма, комедия
Продолжительность: 1:56:20
Перевод: Не требуется
Режиссер: Виктор Гинзбург
Продюссер: Виктор Гинзбург, Джина Гинзбург, Алексей Рязанцев
Сценарий: Виктор Гинзбург, Джина Гинзбург, Виктор Пелевин
Премьера: 14 апреля, 2011 г.
Бюджет: $7 000 000
Сборы в России: $4 399 448
В ролях: Владимир Епифанцев, Михаил Ефремов, Андрей Фомин, Сергей Шнуров, Андрей Панин, Александр Гордон, Рената Литвинова, Владимир Меньшов, Олег Тактаров, Юрий Сафаров
Описание: Основанный на культовом романе Виктора Пелевина фильм «Generation П» во многом строится на галлюцинациях — включая речь Че Гевары о том, почему и как телевидение разрушает человека. Однако через изменённую реальность проступает кропотливо восстановленная атмосфера Москвы в 90-е годы, на фоне которой и разворачивается действие картины. Вавилен Татарский, нашедший себя в новой жизни в роли сотрудника рекламного агентства, занимается продвижением западных брендов, адаптируя их под «русскую ментальность». Умный и местами чудовищно смешной, насыщенный спецэффектами и откровениями фильм делает простой и понятной сложную историю о том, как бывшие пионеры стали рекламщиками на службе у богини Иштар, а «поколение Пепси» выбрало Coca-Cola.
Похожие раздачи: Generation П
Доп. информация: Фильм основан на культовом романе Виктора Пелевина «Generation "П"».
Качество: HDRip-AVC
Формат: MKV
Видео кодек: H.26x
Аудио кодек: AC3
Видео: 868x370 (2.35:1), 23.976 fps, x264 ~1410 kbps avg, 0.183 bit/pixel
Аудио#1: 48 kHz, AC3 Dolby Digital, 3/2 (L,C,R,l,r) + LFE ch, ~384 kbps avg
Размер: 1.46 GB ( 1 566 633 662 bytes ) - 1/3 DVD



Код:

x264 [info]: frame I:1247  Avg QP:16.77  size: 51300
x264 [info]: frame P:36023 Avg QP:20.41  size: 14747
x264 [info]: frame B:130105 Avg QP:22.22  size:  4880
x264 [info]: consecutive B-frames:  3.5%  1.7%  6.1% 17.6% 14.4% 39.6%  5.3%  5.1%  1.5%  2.5%  0.7%  0.4%  0.5%  0.4%  0.6%  0.1%  0.1%
x264 [info]: mb I  I16..4: 10.1% 69.1% 20.8%
x264 [info]: mb P  I16..4:  1.3%  8.3%  2.1%  P16..4: 42.2% 21.5%  5.8%  1.3%  0.4%    skip:17.2%
x264 [info]: mb B  I16..4:  0.1%  0.9%  0.3%  B16..8: 38.8% 10.7%  2.7%  direct: 4.7%  skip:41.7%  L0:43.5% L1:45.8% BI:10.7%
x264 [info]: 8x8 transform intra:70.0% inter:63.2%
x264 [info]: direct mvs  spatial:98.4% temporal:1.6%
x264 [info]: coded y,uvDC,uvAC intra: 80.0% 76.7% 46.4% inter: 23.8% 19.2% 2.6%
x264 [info]: i16 v,h,dc,p: 60% 15%  7% 19%
x264 [info]: i8 v,h,dc,ddl,ddr,vr,hd,vl,hu: 19% 10%  6%  8% 12% 12% 11% 10% 11%
x264 [info]: i4 v,h,dc,ddl,ddr,vr,hd,vl,hu: 30% 15%  5%  6% 10% 10%  9%  8%  9%
x264 [info]: i8c dc,h,v,p: 38% 23% 25% 14%
x264 [info]: Weighted P-Frames: Y:5.4% UV:2.7%
x264 [info]: ref P L0: 48.4% 10.3% 14.9%  6.8%  4.9%  3.6%  2.9%  1.7%  1.3%  1.1%  0.9%  0.8%  0.7%  0.6%  0.5%  0.3%
x264 [info]: ref B L0: 71.3% 12.6%  5.7%  2.8%  2.0%  1.5%  1.2%  0.7%  0.6%  0.5%  0.4%  0.3%  0.3%  0.2%  0.1%
x264 [info]: ref B L1: 92.4%  7.6%
x264 [info]: kb/s:1409.69

Код:

Unique ID                                : 250525405546896391892179528721119073404 (0xBC79702335996F46A65F01F18818547C)
Complete name                            : C:\Pokolenie_Pi\Generation_P_(2011).HDRip-AVC.mkv
Format                                   : Matroska
Format version                           : Version 2
File size                                : 1.46 GiB
Duration                                 : 1h 56mn
Overall bit rate                         : 1 795 Kbps
Encoded date                             : UTC 2011-12-31 15:26:25
Writing application                      : mkvmerge v3.4.0 ('Rapunzel') сборка от May 15 2010 09:38:20
Writing library                          : libebml v0.8.0 + libmatroska v0.9.0

Video
ID                                       : 1
Format                                   : AVC
Format/Info                              : Advanced Video Codec
Format profile                           : High@L4.1
Format settings, CABAC                   : Yes
Format settings, ReFrames                : 16 frames
Codec ID                                 : V_MPEG4/ISO/AVC
Duration                                 : 1h 56mn
Bit rate                                 : 1 410 Kbps
Width                                    : 868 pixels
Height                                   : 370 pixels
Display aspect ratio                     : 2.35:1
Frame rate                               : 23.976 fps
Color space                              : YUV
Chroma subsampling                       : 4:2:0
Bit depth                                : 8 bits
Scan type                                : Progressive
Bits/(Pixel*Frame)                       : 0.183
Stream size                              : 1.12 GiB (77%)
Writing library                          : x264 core 118 r2085 8a62835
Encoding settings                        : cabac=1 / ref=16 / deblock=1:-3:-2 / analyse=0x3:0x133 / me=umh / subme=9 / psy=1 / psy_rd=0.90:0.00 / mixed_ref=1 / me_range=32 / chroma_me=1 / trellis=2 / 8x8dct=1 / cqm=0 / deadzone=21,11 / fast_pskip=0 / chroma_qp_offset=-2 / threads=6 / sliced_threads=0 / nr=0 / decimate=1 / interlaced=0 / bluray_compat=0 / constrained_intra=0 / bframes=16 / b_pyramid=2 / b_adapt=2 / b_bias=0 / direct=3 / weightb=1 / open_gop=0 / weightp=2 / keyint=240 / keyint_min=23 / scenecut=40 / intra_refresh=0 / rc_lookahead=80 / rc=2pass / mbtree=1 / bitrate=1410 / ratetol=1.0 / qcomp=0.70 / qpmin=0 / qpmax=69 / qpstep=4 / cplxblur=20.0 / qblur=0.5 / ip_ratio=1.40 / aq=1:1.00
Language                                 : Russian
Color primaries                          : BT.709-5, BT.1361, IEC 61966-2-4, SMPTE RP177
Transfer characteristics                 : BT.709-5, BT.1361
Matrix coefficients                      : BT.709-5, BT.1361, IEC 61966-2-4 709, SMPTE RP177

Audio
ID                                       : 2
Format                                   : AC-3
Format/Info                              : Audio Coding 3
Mode extension                           : CM (complete main)
Codec ID                                 : A_AC3
Duration                                 : 1h 56mn
Bit rate mode                            : Constant
Bit rate                                 : 384 Kbps
Channel(s)                               : 6 channels
Channel positions                        : Front: L C R, Side: L R, LFE
Sampling rate                            : 48.0 KHz
Bit depth                                : 16 bits
Compression mode                         : Lossy
Stream size                              : 320 MiB (21%)
Language                                 : Russian






pb.wtf



Скачать Generation П через торрент http://i27.fastpic.ru/big/2012/0101/df/2cd7dfa009a2bb787516447370bb43df.png Скачать фильм Generation П через торрент бесплантно в хорошем качестве Описание: Основанный на культовом романе Виктора Пелевина фильм «Generation П» во многом строится на галлюцинациях — включая речь Че Гевары ... 10 10 6
Info! Золотая раздача, скачанное не засчитывается.
Торрент: Зарегистрирован [2012-02-12 12:49] · скачан: 257 раз
Статус: √ проверено
Размер: 1.46 GB
Как cкачать? Как скачать Generation П через торрент | UTorrent

% Раздел Тема Автор DL S | L
Наши фильмы (HD, WEB-DL 720p, 1080p) [ 9.26 GB ] Generation П [2011 BDRip-HEVC 1080p ] bober100 Скачать
1 | 0
Наши фильмы 2010-2011 [ 699 MB ] Generation П [2011 DVDRip 700MB] Lil Badun Скачать
1 | 0
Наши фильмы 2010-2011 [ 1.37 GB ] Generation П [2011 DVDRip] Shmel Скачать
1 | 0
Наши фильмы 2010-2011 [ 1.37 GB ] Generation П / Generation P [2011 DVDRip-AVC лицензия] DEVI Скачать
1 | 0
Наши фильмы (DVD фильмы) [ 6.91 GB ] Generation П [2011 Россия DVD9] R5 «Союз-Видео» voovaz Скачать
1 | 0
Наши фильмы 2010-2011 [ 2.18 GB ] Generation П [2011 . DVDRip AVC] «Культовый роман в кино» -=Cherry=- Скачать
1 | 0

28-11-2019 20:33  

Отключить всю рекламу на сайте

12-02-2012 13:16 Generation П Скачать торрент  

спасибо!pb.wtf



    Дорогой пользователь! Огромная просьба, поблагодарите релизера, оцените раздачу и оставьте свои комментарий, если Вы скачали Generation П через торрент бесплатно! Внесите свою лепту в развитие PiratBit!
    Комментировать посты могут только пользователи прошедшие не сложную регистрацию
    Показать сообщения:    

    Generation П через торрент
    Скачать бесплатно Generation П
    Generation П скачать торрент
    Generation П смотреть онлайн
    Cкачать фильм Generation П бесплатно
    Generation П скачать торрент в хорошем качестве
    Generation П смотреть онлайн бесплатно в хорошем качестве


    Вы не можете начинать темы
    Вы не можете отвечать на сообщения
    Вы не можете редактировать свои сообщения
    Вы не можете удалять свои сообщения
    Вы не можете голосовать в опросах
    Вы не можете прикреплять файлы к сообщениям
    Вы можете скачивать файлы