Ссылка на приватное зеркало нашего сайта всего за 1$. Внимание количество ограничено!!!

2 сезон

iTunes

1 сезон

1

iTunes

iTunes

iTunes

1 сезон

RePack

30

ИГРА 18+

pack

ВАЖНО

!!Акция!!

Alien_RageХит недели

RePack

MK11
pack

Забери бонус

RePack

jed

!!Акция!!

Alien_Rage

RePack

fifa19

RePack

Assassins Creed: Odyssey

RePack

NEED FOR SPEED™ PAYBACK

4 сезон

9 сезон

Бесстыжие 9 сезон

Все сериалы

все сериалы на PB.wtf

RePack

FAR CRY 5
  

Немного не в себе / Сезон: 1 Серии: 1-12 из 12 (Всемирные Русские Студии, ВайТ Медиа) [2011, Россия, комедия, DVD9] R5 pb.wtf

Немного не в себе через торрент pb.wtf

Размер: 7.55 GB | Добавлен: 8 лет 8 мес. назад | Торрент скачан:13 раз
Скачать  

12-02-2012 17:01 Немного не в себе Скачать торрент  



Немного не в себе (сериал)
Год выпуска: 2011
Страна: Россия / Всемирные Русские Студии, ВайТ Медиа
Жанр: комедия
Продолжительность: 12 ~ 00:50:00
Перевод: Оригинал [Лицензия]
Режиссер: Флюза Фархшатова
Продюссер: Дмитрий Месхиев, Андрей Смирнов, Юрий Сапронов
Сценарий: Анастасия Касумова
В ролях: Евгения Добровольская, Светлана Иванова, Алексей Макаров, Екатерина Васильева, Егор Анисимов, Ольга Тумайкина, Татьяна Орлова, Екатерина Дубакина, Роман Хардиков, Дмитрий Шаракоис
Описание: Главный герой сериала, летчик Михаил Нересов, любит одновременно двух женщин — жену Людмилу и свою коллегу, юную красавицу-стюардессу Ирину. Однажды Ирина, которую перестает устраивать исключительно роль любовницы, загадывает желание: во что бы то ни стало всегда быть вместе с Михаилом. И вот, вследствие произошедшей автомобильной аварии, мечта Ирины сбывается, но совершенно неожиданным образом — Ирина и жена Михаила Людмила меняются телами. Теперь женщины волей-неволей вынуждены примерить на себя роль друг друга. Но способна ли принести радость жизнь, когда ты находишься «немного не в себе»? Теперь единственное желание обеих женщин, как можно скорее вернуть всё на свои места. И Людмиле, и Ирине предстоит перенести множество испытаний, чтобы взглянуть на себя со стороны и лучше понять друг друга, прежде чем они снова станут самими собой.
Похожие раздачи: Немного не в себе (сериал)
Качество: DVD9 R5
Формат: DVD Video
Видео кодек: MPEG2
Видео: PAL 16:9 (720x576(0.408)) MPEG Video, 25,000 кадр/сек, 4225 Кбит/сек
Аудио#1: Russian (Dolby AC3, 2 ch) 96,0 Кбит/сек, 48,0 КГц
Субтитры: нет


Код:

Title: Рабочий
Size: 7.55 Gb ( 7 911 836 KBytes ) - DVD-9
Enabled regions: 1, 2, 3, 4, 5, 6, 7, 8

VTS_01 :
Play Length: 10:16:52
Video: PAL 16:9 (720x576) VBR, Auto Letterboxed
Audio:
English (Dolby AC3, 2 ch)

VTS_02 :
Play Length: 00:03:01
Video: PAL 16:9 (720x576) VBR, Auto Letterboxed
Audio:
English (Dolby AC3, 2 ch)

Menu Video:
PAL 4:3 (720x576) VBR
Menu Audio:
Not specified (Dolby AC3, 2 ch)
Menu Subtitles:
Not specified
Menu English Language Unit :
Root Menu
Chapter (PTT) Menu


Код:

Общее
Полное имя : G:\Новинки 2012\Nemnogo.ne.v.sebe.2011.DVD9\VIDEO_TS\VTS_01_1.VOB
Формат : MPEG-PS
Размер файла : 1024 Мбайт
Продолжительность : 32 м.
Режим общего битрейта : Переменный
Общий поток : 4409 Кбит/сек

Видео
Идентификатор : 224 (0xE0)
Формат : MPEG Video
Версия формата : Version 2
Профиль формата : Main@Main
Параметр BVOP формата : Да
Параметр матрицы формата : Выборочная
Продолжительность : 32 м.
Вид битрейта : Переменный
Битрейт : 4225 Кбит/сек
Максимальный битрейт : 6000 Кбит/сек
Ширина : 720 пикселей
Высота : 576 пикселей
Соотношение сторон : 16:9
Частота кадров : 25,000 кадров/сек
Стандарт вещания : PAL
Цветовое пространство : YUV
Субдискретизация насыщенности : 4:2:0
Битовая глубина : 8 бит
Тип развёртки : Прогрессивная
Метод сжатия : С потерями
Бит/(Пиксели*Кадры) : 0.408
Размер потока : 981 Мбайт (96%)

Аудио
Идентификатор : 189 (0xBD)-128 (0x80)
Формат : AC-3
Формат/Информация : Audio Coding 3
Расширение режима : CM (complete main)
Режим смешивания : DVD-Video
Продолжительность : 32 м.
Вид битрейта : Постоянный
Битрейт : 96,0 Кбит/сек
Каналы : 2 канала
Расположение каналов : Front: L R
Частота : 48,0 КГц
Битовая глубина : 16 бит
Метод сжатия : С потерями
Размер потока : 22,3 Мбайт (2%)







pb.wtf



Скачать Немного не в себе через торрент http://you-logo.ru/pictures/5a364a8db385d49d4a0dcb2a8a986998.png Скачать фильм Немного не в себе через торрент бесплантно в хорошем качестве Описание: Главный герой сериала, летчик Михаил Нересов, любит одновременно двух женщин — жену Людмилу и свою коллегу, юную ... 10 10 1
Info! Золотая раздача, скачанное не засчитывается.
Торрент: Зарегистрирован [2012-02-12 17:01] · скачан: 13 раз
Статус: √ проверено
Размер: 7.55 GB
Как cкачать? Как скачать Немного не в себе через торрент | qTorrent

28-11-2019 20:33  

Отключить всю рекламу на сайте

    Дорогой пользователь! Огромная просьба, поблагодарите релизера, оцените раздачу и оставьте свои комментарий, если Вы скачали Немного не в себе через торрент бесплатно! Внесите свою лепту в развитие PiratBit!
    Комментировать посты могут только пользователи прошедшие не сложную регистрацию
    Показать сообщения:    

    Немного не в себе через торрент
    Скачать бесплатно Немного не в себе
    Немного не в себе скачать торрент
    Немного не в себе смотреть онлайн
    Cкачать фильм Немного не в себе бесплатно
    Немного не в себе скачать торрент в хорошем качестве
    Немного не в себе смотреть онлайн бесплатно в хорошем качестве


    Вы не можете начинать темы
    Вы не можете отвечать на сообщения
    Вы не можете редактировать свои сообщения
    Вы не можете удалять свои сообщения
    Вы не можете голосовать в опросах
    Вы не можете прикреплять файлы к сообщениям
    Вы можете скачивать файлы