Мега распродажа FORZA HORIZON 4 ULTIMATE+ВСЕ DLC+ОНЛАЙН всего за 499р. 349 руб. (супер цена). Внимание количество ограничено!!!

iTunes

1+1

iTunes

мы

iTunes

1

1 сезон

Чернобыль

1 сезон

Ральф против интернета

Лицензия

ПШазам

8 сезон

Игра престолов

Лицензия

30
pack

ВАЖНО

!!Акция!!

Alien_RageХит недели

RePack

Resident Evil 21

ИГРА 18+

pack

RePack

Metro:Exodus

!!Акция!!

Alien_Rage

RePack

fifa19

RePack

Assassins Creed: Odyssey

RePack

NEED FOR SPEED™ PAYBACK

3 сезон

9 сезон

Бесстыжие 9 сезон

Все сериалы

все сериалы на PB.wtf

RePack

FAR CRY 5
Ребята, катастрофически не хватает 2730р. для оплаты серверов за ИЮНЬ (всвязи с блокировками трафик упал в 3 раза), 1-2р., выручайте.
  

Бразилия / Brazil [Director's Cut] (Терри Гиллиам) [1985 г., фантастика, фэнтези, драма, BDRip-AVC] pb.wtf

Бразилия через торрент pb.wtf

Раздают: 1 [ 0 KB/s ]
Размер: 2.18 GB | Добавлен: 7 лет 5 мес. назад | Торрент скачан:88 раз
Скачать  

14-02-2012 19:11 Бразилия Скачать торрент  

Бразилия / Brazil [Director's Cut]

Год выпуска: 1985
Страна: Великобритания
Жанр: фантастика, фэнтези, драма
Продолжительность: 02:23:20
Перевод: Профессиональный (многоголосый, закадровый)

Режиссер: Терри Гиллиам
Сценарий: Терри Гиллиам, Том Стоппард, Чарльз МакКоуэн
Премьера в мире: 20 февраля 1985



В ролях: Джонатан Прайс, Роберт Де Ниро, Кэтрин Хелмонд, Иэн Холм, Боб Хоскинс, Майкл Пэлин, Иэн Ричардсон, Питер Вон, Ким Грайст, Джим Броудбент

Описание: Сюжет фильма разворачивается где-то в XX веке в антиутопической Великобритании, общество которой сковала тотальная бюрократия.
Главный герой Сэм Лаури вполне доволен своей жизнью, он предпочитает работу мелкого клерка и согласен мириться с необустроенным собственным бытом вопреки воле матери, входящей в элиту системы. Но внезапно он встречает девушку, которую постоянно видит в своих снах. Ради того, чтобы снова встретить её, он решается сменить работу. Он выясняет ее имя — Джил Лейтон, она постоянно отправляет жалобы в отдел информационных исправлений на ошибочный арест её соседа — Арчибальда Баттла, которого перепутали с Гарри Таттлом (Роберт Де Ниро) и осудили за саботаж из-за ошибки, возникшей при оформлении постановления. А так как отдел информационных исправлений «не может ошибаться», то сотрудники отдела пытаются скрыть ошибку, попросту убрав Джил. Единственный выход, который видит Сэм — это удалить запись Джил из системы.

В ходе своей борьбы с системой Сэм встречает Таттла — инженера по отоплению, который ненавидит бумажную волокиту и вынужден заниматься любимым делом на партизанский манер. В конце концов Сэму удаётся удалить записи о Джил (с компьютера в офисе Министра Информации) и спрятать Джил в шикарной квартире уехавшей матери, но теперь он сам является преступником. Кажется, что всё прошло удачно и Сэм проводит ночь с любимой, но утром врывается группа захвата: Джил убивают, а его отправляют в отдел информационных исправлений. Там из-за страха пыток он, фактически, сходит с ума и погружается в райский мир грёз, в котором у него всё складывается идеально.

Качество: BDRip-AVC
Формат: MKV
Видео кодек: H.26x
Аудио кодек: AC3
Видео: 1022x556 (16:9) 23,976 fps, 1949 kbps, 0.143 bit/pixel
Аудио: 48 kHz, AC3, 2/0 (L,R) ch, 224.00 (Русский)

&
Общее
Уникальный идентификатор : 219804655127016139874004334923304849169 (0xA55CD63371D434A6813CA7E33FFECF11)
Полное имя : D:\Brazil.Director's Cut.1985.BDRip-AVC.PT.mkv
Формат : Matroska
Версия формата : Version 2
Размер файла : 2,18 Гбайт
Продолжительность : 2 ч. 23 м.
Общий поток : 2174 Кбит/сек
Название фильма : Бразилия / Brazil [Director's Cut] (1985) BDRip-AVC rip by rulya74
Дата кодирования : UTC 2012-02-14 16:57:30
Программа кодирования : mkvmerge v5.2.1 ('A Far Off Place') built on Jan 2 2012 23:21:10
Библиотека кодирования : libebml v1.2.3 + libmatroska v1.3.0

Видео
Идентификатор : 1
Формат : AVC
Формат/Информация : Advanced Video Codec
Профиль формата : High@L4.1
Параметр CABAC формата : Да
Параметр ReFrames формата : 9 кадров
Идентификатор кодека : V_MPEG4/ISO/AVC
Продолжительность : 2 ч. 23 м.
Битрейт : 1949 Кбит/сек
Ширина : 1022 пикселя
Высота : 556 пикселей
Соотношение сторон : 16:9
Частота кадров : 23,976 кадра/сек
Цветовое пространство : YUV
Субдискретизация насыщенности : 4:2:0
Битовая глубина : 8 бит
Тип развёртки : Прогрессивная
Бит/(Пиксели*Кадры) : 0.143
Размер потока : 1,91 Гбайт (88%)
Библиотека кодирования : x264 core 120 r2164 da19765
Настройки программы : cabac=1 / ref=9 / deblock=1:-2:-2 / analyse=0x3:0x113 / me=umh / subme=9 / psy=1 / psy_rd=1.00:0.00 / mixed_ref=1 / me_range=48 / chroma_me=1 / trellis=2 / 8x8dct=1 / cqm=0 / deadzone=21,11 / fast_pskip=1 / chroma_qp_offset=-2 / threads=3 / sliced_threads=0 / nr=0 / decimate=1 / interlaced=0 / bluray_compat=0 / constrained_intra=0 / bframes=9 / b_pyramid=2 / b_adapt=2 / b_bias=0 / direct=3 / weightb=1 / open_gop=0 / weightp=2 / keyint=240 / keyint_min=22 / scenecut=40 / intra_refresh=0 / rc=2pass / mbtree=0 / bitrate=1949 / ratetol=1.0 / qcomp=0.60 / qpmin=10 / qpmax=51 / qpstep=4 / cplxblur=20.0 / qblur=0.5 / ip_ratio=1.40 / pb_ratio=1.30 / aq=1:1.00
Default : Да
Forced : Нет

Аудио
Идентификатор : 2
Формат : AC-3
Формат/Информация : Audio Coding 3
Профиль формата : Dolby Digital
Расширение режима : CM (complete main)
Идентификатор кодека : A_AC3
Продолжительность : 2 ч. 23 м.
Вид битрейта : Постоянный
Битрейт : 224 Кбит/сек
Каналы : 2 канала
Расположение каналов : Front: L R
Частота : 48,0 КГц
Битовая глубина : 16 бит
Метод сжатия : С потерями
Размер потока : 230 Мбайт (10%)
Заголовок : MVO
Язык : Russian
Default : Да
Forced : Нет
pb.wtf



Скачать Бразилия через торрент http://pic.kartinco.top/images/2011/q5bvwmy2f6.png Скачать фильм Бразилия через торрент бесплантно в хорошем качестве Описание: Сюжет фильма разворачивается где-то в XX веке в антиутопической Великобритании, общество которой сковала тотальная ... 4.8 10 4
Info! Золотая раздача, скачанное не засчитывается.
Торрент: Зарегистрирован [2012-02-14 19:11] · скачан: 88 раз
Статус: √ проверено
Размер: 2.18 GB
Как cкачать? Как скачать Бразилия через торрент | qTorrent

% Раздел Тема Автор DL S | L
Фильмы [HD 720p, 1080p] (Хороший звук DUB, MVO) [ 14.24 GB ] Мальчики из Бразилии / The Boys from Brazil [1978 BDRip 1080p by msltel] MVO 2 x AVO msltel Скачать
1 | 0
Фильмы [HD 720p, 1080p] (Хороший звук DUB, MVO) [ 5.84 GB ] Мальчики из Бразилии / The Boys from Brazil [1978 BDRip 720p by msltel] MVO 2 x AVO msltel Скачать
1 | 0
T Фильмы (мультфильмы) cо спонсором показа (Новинки AVI/MKV) [ 1.37 GB ] Мэверик: охота в Бразилии / Maverick: Manhunt Brazil [2016 WEB-DLRip] MVO ["Синема УС"] bober100 Скачать
1 | 0
T Фильмы (мультфильмы) cо спонсором показа (Новинки AVI/MKV) [ 3.13 GB ] Мэверик: охота в Бразилии / Maverick: Manhunt Brazil [2016 WEB-DL 720p] MVO ["Синема УС"] bober100 Скачать
1 | 0
Гонзо [ 2.55 GB ] Бразилия Напоказ 2 / Brazil Xposed 2 [2017 Gonzo Anal WEB-DL Оригинальный] DJASFUL Скачать
1 | 0
Фильмы до 2000 г. [ 2.1 GB ] Бразилия / Brazil [1985 HDRip] [Режиссёрская версия / Director's Cut] [MVO] killermax2013 Скачать
1 | 0
Порно фильмы HD [ 8.73 GB ] Мисс большая задница Бразилии 12 / Miss Big Ass Brazil #12 [2014 All Sex Big Butt Brazilian Latin WEB-DL 1080pОригинал] DJASFUL Скачать
1 | 0


>> Регистрируемся здесь <<






Отзывы и комментарии о схеме читаем и пишем здесь: ---> Отзывы и комментарии о схеме

Новые благодарочки в телеграм довольных пользователей:
скриншот   скриншот   скриншот   скриншот   скриншот

14-02-2012 19:39 Бразилия Скачать торрент  

такое подробное описание что как-будто фильм посмотрел))pb.wtf



    Дорогой пользователь! Огромная просьба, поблагодарите релизера, оцените раздачу и оставьте свои комментарий, если Вы скачали Бразилия через торрент бесплатно! Внесите свою лепту в развитие PiratBit!
    Комментировать посты могут только пользователи прошедшие не сложную регистрацию
    Показать сообщения:    

    Бразилия через торрент
    Скачать бесплатно Бразилия
    Бразилия скачать торрент
    Бразилия смотреть онлайн
    Cкачать фильм Бразилия бесплатно
    Бразилия скачать торрент в хорошем качестве
    Бразилия смотреть онлайн бесплатно в хорошем качестве


    Вы не можете начинать темы
    Вы не можете отвечать на сообщения
    Вы не можете редактировать свои сообщения
    Вы не можете удалять свои сообщения
    Вы не можете голосовать в опросах
    Вы не можете прикреплять файлы к сообщениям
    Вы можете скачивать файлы