Ссылка на приватное зеркало нашего сайта всего за 1$. Внимание количество ограничено!!!

2 сезон

iTunes

1 сезон

1

iTunes

iTunes

iTunes

1 сезон

RePack

30

ИГРА 18+

pack

ВАЖНО

!!Акция!!

Alien_RageХит недели

RePack

MK11
pack

Забери бонус

RePack

jed

!!Акция!!

Alien_Rage

RePack

fifa19

RePack

Assassins Creed: Odyssey

RePack

NEED FOR SPEED™ PAYBACK

4 сезон

9 сезон

Бесстыжие 9 сезон

Все сериалы

все сериалы на PB.wtf

RePack

FAR CRY 5
  

Операция "Горгона" / Серии: 1 - 4 из 4 (Владимир Котт) [2011, Россия, боевик, драма, военный, DVD9] Original Rus pb.wtf

Операция "Горгона" через торрент pb.wtf

Размер: 7.58 GB | Добавлен: 8 лет 8 мес. назад | Торрент скачан:77 раз
Скачать  

17-02-2012 14:43 Операция "Горгона" Скачать торрент  

[font="Georgia"]
Операция Горгона
Страна: Россия
Жанр: боевик, драма, военный
Год выпуска: 2011
Российская премьера: 7 мая 2011
Дата выхода DVD: 16 февраля 2012
Продолжительность: 4 ~ 00:45:00
Перевод: Оригинал [Лицензия]
Cубтитры: нет
Оригинальная аудиодорожка: русский
Режиссер: Владимир Котт
В ролях: Алексей Кравченко, Екатерина Федулова, Александр Лымарев, Сергей Давыдов, Александр Ильин, Алексей Миночкин, Борис Невзоров, Леонид Громов, Олег Демидов, Анатолий Кот
Описание: Закончилась Сталинградская битва. Советская Армия готовит широкомасштабную Белорусскую стратегическую наступательную операцию под кодовым названием «Багратион». За неделю до начала операции становится известно, что немцы заминировали все подступы к городу N. Заминированы дороги, мосты, леса. Они создали целые минные поля. Тотально заминирован и сам город. Могут пострадать мирные жители. В штаб армии вызывают опытного разведчика Тишкова. Федор Тишков — бывший цирковой артист, выступавший когда-то с силовыми номерами, получает новое задание.
Группе Тишкова необходимо в течение трех дней похитить карту минирования под кодовым названием «Горгона». Если задание не будет выполнено, то погибнут мирные жители, будут потери и среди наших солдат. Москва требует, чтобы наступление началось в четко обозначенные им сроки. Тишков и члены его группы, бывшие цирковые артисты, забрасываются в тыл к немцам…

Бонусы: нет

Релиз группы:
Качество: DVD9 R5
Формат: DVD-Video
Видео кодек: MPEG2
Аудио кодек: AC3
Видео: PAL 16:9 (720x576(0.549)) MPEG Video, 25,000 кадр/сек, 5690 Кбит/сек
Аудио: Russian: (Dolby AC3, 2 ch) 224 Кбит/сек, 48,0 КГц



Title:
Size: 7.58 Gb ( 7 947 176 KBytes ) - DVD-9
Enabled regions: 1, 2, 3, 4, 5, 6, 7, 8

VTS_01 :
Play Length: 00:00:15
Video: PAL 4:3 (720x576) VBR
Audio:
Not specified (Dolby AC3, 2 ch)

VTS_02 :
Play Length: 00:00:08
Video: PAL 16:9 (720x576) VBR, Auto Letterboxed
Audio:
Not specified (Dolby AC3, 2 ch)

VTS_03 :
Play Length: 00:01:19
Video: PAL 16:9 (720x576) VBR, Auto Letterboxed
Audio:
Not specified (Dolby AC3, 2 ch)

VTS_04 :
Play Length: 00:44:20
Video: PAL 16:9 (720x576) VBR, Auto Letterboxed
Audio:
Russian (Dolby AC3, 2 ch)

VTS_05 :
Play Length: 00:44:40
Video: PAL 16:9 (720x576) VBR, Auto Letterboxed
Audio:
Russian (Dolby AC3, 2 ch)

VTS_06 :
Play Length: 00:45:56
Video: PAL 16:9 (720x576) VBR, Auto Letterboxed
Audio:
Russian (Dolby AC3, 2 ch)

VTS_07 :
Play Length: 00:46:34
Video: PAL 16:9 (720x576) VBR, Auto Letterboxed
Audio:
Russian (Dolby AC3, 2 ch)

Menu Video:
PAL 16:9 (720x576) VBR
Auto Pan&Scan
Menu English Language Unit :
Root Menu
Chapter (PTT) Menu
Общее
Полное имя : G:\Новинки 2012\Operacia.Gorgona.2011.DVD9\VIDEO_TS\VTS_04_1.VOB
Формат : MPEG-PS
Размер файла : 1024 Мбайт
Продолжительность : 23 м.
Режим общего битрейта : Переменный
Общий поток : 6034 Кбит/сек

Видео
Идентификатор : 224 (0xE0)
Формат : MPEG Video
Версия формата : Version 2
Профиль формата : Main@Main
Параметр BVOP формата : Да
Параметр матрицы формата : По умолчанию
Параметр GOP формата : M=3, N=12
Продолжительность : 23 м.
Вид битрейта : Переменный
Битрейт : 5690 Кбит/сек
Максимальный битрейт : 7500 Кбит/сек
Ширина : 720 пикселей
Высота : 576 пикселей
Соотношение сторон : 16:9
Частота кадров : 25,000 кадров/сек
Стандарт вещания : PAL
Цветовое пространство : YUV
Субдискретизация насыщенности : 4:2:0
Битовая глубина : 8 бит
Тип развёртки : Чересстрочная
Порядок развёртки : Верхнее поле первое
Метод сжатия : С потерями
Бит/(Пиксели*Кадры) : 0.549
Размер потока : 966 Мбайт (94%)

Аудио
Идентификатор : 189 (0xBD)-128 (0x80)
Формат : AC-3
Формат/Информация : Audio Coding 3
Расширение режима : CM (complete main)
Режим смешивания : DVD-Video
Продолжительность : 23 м.
Вид битрейта : Постоянный
Битрейт : 224 Кбит/сек
Каналы : 2 канала
Расположение каналов : Front: L R
Частота : 48,0 КГц
Битовая глубина : 16 бит
Метод сжатия : С потерями
Размер потока : 38,0 Мбайт (4%)




pb.wtf



Скачать Операция "Горгона" через торрент http://i3.imageban.ru/out/2012/02/17/4962e9aef1f9eb093563e974e6bb95cd.jpg Скачать фильм Операция "Горгона" через торрент бесплантно в хорошем качестве Описание: Закончилась Сталинградская битва. Советская Армия готовит широкомасштабную Белорусскую стратегическую наступательную операцию под ... 4.8 10 9
Info! Золотая раздача, скачанное не засчитывается.
Торрент: Зарегистрирован [2012-02-17 14:43] · скачан: 77 раз
Статус: √ проверено
Размер: 7.58 GB
Как cкачать? Как скачать Операция "Горгона" через торрент | qTorrent

28-11-2019 20:33  

Отключить всю рекламу на сайте

    Дорогой пользователь! Огромная просьба, поблагодарите релизера, оцените раздачу и оставьте свои комментарий, если Вы скачали Операция "Горгона" через торрент бесплатно! Внесите свою лепту в развитие PiratBit!
    Комментировать посты могут только пользователи прошедшие не сложную регистрацию
    Показать сообщения:    

    Операция "Горгона" через торрент
    Скачать бесплатно Операция "Горгона"
    Операция "Горгона" скачать торрент
    Операция "Горгона" смотреть онлайн
    Cкачать фильм Операция "Горгона" бесплатно
    Операция "Горгона" скачать торрент в хорошем качестве
    Операция "Горгона" смотреть онлайн бесплатно в хорошем качестве


    Вы не можете начинать темы
    Вы не можете отвечать на сообщения
    Вы не можете редактировать свои сообщения
    Вы не можете удалять свои сообщения
    Вы не можете голосовать в опросах
    Вы не можете прикреплять файлы к сообщениям
    Вы можете скачивать файлы