2 сезон

iTunes

1 сезон

1

iTunes

iTunes

iTunes

1 сезон

RePack

30

ИГРА 18+

pack

ВАЖНО

!!Акция!!

Alien_RageХит недели

RePack

MK11
pack

Забери бонус

RePack

jed

!!Акция!!

Alien_Rage

RePack

fifa19

RePack

Assassins Creed: Odyssey

RePack

NEED FOR SPEED™ PAYBACK

4 сезон

9 сезон

Бесстыжие 9 сезон

Все сериалы

все сериалы на PB.wtf

RePack

FAR CRY 5
  

Монстр в Париже / Un monstre a Paris (Бибо Бержерон) [2011 г., Мультфильм, фэнтези, приключения, BDRip-AVC] pb.wtf

Монстр в Париже через торрент pb.wtf

Размер: 2.14 GB | Добавлен: 8 лет 8 мес. назад | Торрент скачан:677 раз
Скачать  

17-02-2012 19:53 Монстр в Париже Скачать торрент  

Монстр в Париже / Un monstre a Paris

Год выпуска: 2011
Страна: Франция
Жанр: Мультфильм, фэнтези, приключения
Продолжительность: 01:31:06
Перевод: Профессиональный (полное дублирование)

Режиссер: Бибо Бержерон

В ролях: Ванесса Паради, Матье Шедид, Гад Эльмале, Франсуа Клюзе, Людивин Санье, Жюли Ферье, Бруно Саломон, Себастьян Дежу, Филип Петью, Боб Бэлабан

Описание: Париж. 1910 год. Ужасный монстр, напоминающий гигантское насекомое, нагоняет страх на всю Францию. Застенчивый киномеханик и неутомимый изобретатель начинают охоту на него. В этой погоне они знакомятся со звездой кабаре, сумасшедшим ученым и его умной обезьянкой и, наконец, самим монстром, который оказывается совсем не страшным. Теперь безобидное, как блоха, чудовище ищет у своих новых друзей защиты от вредного начальника городской полиции.

Доп. информация:


BDRip (AVC) (Blu-Ray (1080p))


Качество: BDRip
Формат: MKV
Видео кодек: H.264
Аудио кодек: AC3
Видео: MPEG-4 AVC, 2500 Кбит/с, 1024x554, 23.976 кадра/с, 0.184bits/pixel
Аудио: Русский, английский (AC3, 6 ch, 448 Кбит/с)48,0 КГц
Общее
Уникальный идентификатор : 222957563063890971072616526263936029442 (0xA7BC10906427A1998E8856F4EB9B1302)
Полное имя : D:\DVD\Monstr.v.Parizhe.2011.x264.BDRip.(AVC).ExKinoRay.mkv
Формат : Matroska
Размер файла : 2,14 Гбайт
Продолжительность : 1 ч. 31 м.
Общий поток : 3360 Кбит/сек
Название фильма : Monstr.v.Parizhe.2011.x264.BDRip.(AVC).ExKinoRay (Enigma-Vladislav71)
Дата кодирования : UTC 2012-02-16 18:52:31
Программа кодирования : mkvmerge v4.0.0 ('The Stars were mine') сборка от Jun 6 2010 16:18:42
Библиотека кодирования : libebml v1.0.0 + libmatroska v1.0.0

Видео
Идентификатор : 1
Формат : AVC
Формат/Информация : Advanced Video Codec
Профиль формата : High@L4.1
Параметр CABAC формата : Да
Параметр ReFrames формата : 4 кадры
Идентификатор кодека : V_MPEG4/ISO/AVC
Продолжительность : 1 ч. 31 м.
Битрейт : 2500 Кбит/сек
Ширина : 1024 пикс.
Высота : 554 пикс.
Соотношение сторон : 16:9
Частота кадров : 23,976 кадр/сек
Цветовое пространство : YUV
Подвыборка цветности : 4:2:0
Битовая глубина : 8 бит
Тип развёртки : Прогрессивная
Бит/(Пиксели*Кадры) : 0.184
Размер потока : 1,53 Гбайт (71%)
Библиотека кодирования : x264 core 116 r2074 2641b9e
Настройки программы : cabac=1 / ref=3 / deblock=1:-1:-1 / analyse=0x3:0x133 / me=umh / subme=7 / psy=1 / psy_rd=1.00:0.00 / mixed_ref=1 / me_range=24 / chroma_me=1 / trellis=2 / 8x8dct=1 / cqm=0 / deadzone=21,11 / fast_pskip=0 / chroma_qp_offset=-2 / threads=3 / sliced_threads=0 / nr=0 / decimate=1 / interlaced=0 / bluray_compat=0 / constrained_intra=0 / bframes=5 / b_pyramid=2 / b_adapt=2 / b_bias=0 / direct=3 / weightb=1 / open_gop=0 / weightp=2 / keyint=250 / keyint_min=23 / scenecut=40 / intra_refresh=0 / rc=2pass / mbtree=0 / bitrate=2500 / ratetol=1.0 / qcomp=0.60 / qpmin=10 / qpmax=51 / qpstep=4 / cplxblur=20.0 / qblur=0.5 / ip_ratio=1.40 / pb_ratio=1.30 / aq=2:1.00
Язык : English

Аудио #1
Идентификатор : 2
Формат : AC-3
Формат/Информация : Audio Coding 3
Расширение режима : CM (complete main)
Идентификатор кодека : A_AC3
Продолжительность : 1 ч. 31 м.
Вид битрейта : Постоянный
Битрейт : 448 Кбит/сек
Канал(ы) : 6 канала(ов)
Расположение каналов : Front: L C R, Side: L R, LFE
Частота : 48,0 КГц
Битовая глубина : 16 бит
Метод сжатия : С потерями
Размер потока : 292 Мбайт (13%)
Язык : Russian

Аудио #2
Идентификатор : 3
Формат : AC-3
Формат/Информация : Audio Coding 3
Расширение режима : CM (complete main)
Идентификатор кодека : A_AC3
Продолжительность : 1 ч. 31 м.
Вид битрейта : Постоянный
Битрейт : 448 Кбит/сек
Канал(ы) : 6 канала(ов)
Расположение каналов : Front: L C R, Side: L R, LFE
Частота : 48,0 КГц
Битовая глубина : 16 бит
Метод сжатия : С потерями
Размер потока : 292 Мбайт (13%)
Язык : English




pb.wtf



Скачать Монстр в Париже через торрент http://i27.fastpic.ru/big/2012/0217/4a/9d1c156df1e3c3d3c17416bf666bb94a.gif Скачать фильм Монстр в Париже через торрент бесплантно в хорошем качестве Описание: Париж. 1910 год. Ужасный монстр, напоминающий гигантское насекомое, нагоняет страх на всю Францию. Застенчивый киномеханик и ... 5 10 25
Info! Золотая раздача, скачанное не засчитывается.
Торрент: Зарегистрирован [2012-02-17 19:53] · скачан: 677 раз
Статус: √ проверено
Размер: 2.14 GB
Как cкачать? Как скачать Монстр в Париже через торрент | qTorrent

% Раздел Тема Автор DL S | L
Иностранные мультфильмы [ 2.82 GB ] Монстр в Париже / Un monstre à Paris / A Monster in Paris [2011 мультфильм музыка BDRip-AVC] Dub dexter lex Скачать
1 | 0
3D Мультфильмы [ 5.62 GB ] Монстр в Париже / Un monstre a Paris A Monster in Paris [2011 мультфильм музыка BDRip 1080p DUB] Anaglyph red'cyan slaventi-69 Скачать
1 | 0
Зарубежные Мультфильмы (BDRip 1080p, 720p, Blu-ray, BD-Remux) [ 1.46 GB ] Монстр в Париже / Un monstre a Paris [2011 мультфильм музыка HDRip DUB ] Dean24 Скачать
1 | 0
3D Мультфильмы [ 4.98 GB ] Монстр в Париже / Un monstre a Paris A Monster in Paris [2011 мультфильм музыка BDRip1080p-AVC]Anamorph OverUnder slaventi-69 Скачать
1 | 0
Зарубежные Мультфильмы (DVD) [ 6.16 GB ] Монстр в Париже / Un monstre a Paris [2011 мультфильм музыка DVD9] R5 voovaz Скачать
1 | 0

28-11-2019 20:33  

Отключить всю рекламу на сайте

17-02-2012 21:06 Монстр в Париже Скачать торрент  

скорее пишите отзывы. стоит качать или нет?pb.wtf



18-02-2012 19:27 Монстр в Париже Скачать торрент  

конешно не фонтан но мне понравилось
видно што придали немалых усилий штоб людям понравилосьpb.wtf



    Дорогой пользователь! Огромная просьба, поблагодарите релизера, оцените раздачу и оставьте свои комментарий, если Вы скачали Монстр в Париже через торрент бесплатно! Внесите свою лепту в развитие PiratBit!
    Комментировать посты могут только пользователи прошедшие не сложную регистрацию
    Показать сообщения:    

    Монстр в Париже через торрент
    Скачать бесплатно Монстр в Париже
    Монстр в Париже скачать торрент
    Монстр в Париже смотреть онлайн
    Cкачать фильм Монстр в Париже бесплатно
    Монстр в Париже скачать торрент в хорошем качестве
    Монстр в Париже смотреть онлайн бесплатно в хорошем качестве


    Вы не можете начинать темы
    Вы не можете отвечать на сообщения
    Вы не можете редактировать свои сообщения
    Вы не можете удалять свои сообщения
    Вы не можете голосовать в опросах
    Вы не можете прикреплять файлы к сообщениям
    Вы можете скачивать файлы