1 сезон

3 сезон

iTunes

1

Line

MVO

iTunes

13

1 сезон

RePack

30

Deluxe

pack

Лицензия

ВАЖНО

ИГРА 18+

pack

RePack

MK11

RePack

jed

RePack

fifa19

RePack

RDR2

RePack

NEED FOR SPEED™ PAYBACK

4 сезон

9 сезон

Бесстыжие 9 сезон

Все сериалы

все сериалы на PB.wtf

RePack

FAR CRY 5

Anonymous, доброй ночи, мы катастрофически не успеваем собрать деньги на оплату серверов, помогите нам пожалуйста 5,10,15р., для нас важна любая помощь . В качестве благодарности мы отключим Вам всю рекламу на сайте (укажите свой ник в строку Ваше имя)!

×
  
Magnet ссылка

Игры киллеров / Assassination Games (Эрни Барбараш / Ernie Barbarash) [2011, боевик, триллер, DVD5] R5 pb.wtf

Игры киллеров через торрент pb.wtf

Размер: 4.06 GB | Добавлен: 9 лет 5 мес. назад | Торрент скачан:174 раза
Скачать  

17-02-2012 20:44 Игры киллеров Скачать торрент  

[font="Georgia"]
Игры киллеров / Assassination Games
Страна: США, Румыния
Студия: Mediapro Studios, Motion Picture Corporation of America (MPCA), Rodin Entertainment
Жанр: боевик, триллер
Год выпуска: 2011
Мировая премьера: 29 июля 2011
Российская премьера: 19 января 2012
Дата выхода DVD: 14 февраля 2012
Продолжительность: 01:35:47
Перевод: Профессиональный (дублированный) [Лицензия]
Cубтитры: нет
Режиссер: Эрни Барбараш / Ernie Barbarash
В ролях: Жан-Клод Ван Дамм, Скотт Эдкинс, Айван Кэй, Валентин Теодосию, Элин Пэнк, Кевин Чэпмен, Сербан Целеа, Майкл Хиггс, Кристофер Ван Варенберг, Мария Каран
Описание: Роланд Флинт и Винсент Брэйзил — отъявленные наёмники, мастера восточных единоборств и гуру военного искусства. Винсент специализируется на холодном оружии, в то время, как Роланд является первоклассным стрелком. Они не знакомы друг другу, но вскоре им предстоит создать непростой альянс и колоритный тандем.
В один прекрасный день двум профессионалам поручили задание — любой ценой уничтожить наркокартель, заполонившую всю округу «товаром», а вместе с тем — убрать её всесильного босса, покрываемого управлением по борьбе с наркотиками.
Однако, за простой, с первого взгляда, миссией кроется предательство, подстава и тёмные проделки влиятельных лиц и воротил преступного мира, объявивших охоту на самих наёмников. Теперь крутым ребятам придётся на собственной шкуре ощутить, что значит быть жертвой и постоянно оглядываться назад. Война начинается и кровопролитной битвы не избежать…

Бонусы: нет

Релиз группы:
Качество: DVD5 R5
Формат: DVD-Video
Видео кодек: MPEG2
Аудио кодек: AC3
Видео: PAL 16:9 (720x576(0.525)) MPEG Video, 25,000 кадр/сек, 5442 Кбит/сек
Аудио: Russian (Dolby AC3, 6 ch) 448 Кбит/сек, 48,0 КГц



Title:
Size: 4.06 Gb ( 4 254 942 KBytes ) - DVD-5
Enabled regions: 1, 2, 3, 4, 5, 6, 7, 8

VTS_01 :
Play Length: 00:00:19
Video: PAL 4:3 (720x576) VBR
Audio:
Russian (Dolby AC3, 2 ch)

VTS_02 :
Play Length: 00:00:02
Video: PAL 16:9 (720x576) VBR, Auto Pan&Scan
Audio:
Russian (Dolby AC3, 2 ch)

VTS_03 :
Play Length: 01:35:47
Video: PAL 16:9 (720x576) VBR, Auto Pan&Scan
Audio:
Russian (Dolby AC3, 6 ch)

Menu Video:
PAL 4:3 (720x576) VBR
Menu English Language Unit :
Root Menu
Chapter (PTT) Menu
Общее
Полное имя : G:\Новинки 2012\Igri.Killerov.2011.DVD5\VIDEO_TS\VTS_03_3.VOB
Формат : MPEG-PS
Размер файла : 1024 Мбайт
Продолжительность : 23 м.
Режим общего битрейта : Переменный
Общий поток : 6010 Кбит/сек

Видео
Идентификатор : 224 (0xE0)
Формат : MPEG Video
Версия формата : Version 2
Профиль формата : Main@Main
Параметр BVOP формата : Да
Параметр матрицы формата : Выборочная
Продолжительность : 23 м.
Вид битрейта : Переменный
Битрейт : 5442 Кбит/сек
Максимальный битрейт : 7489 Кбит/сек
Ширина : 720 пикселей
Высота : 576 пикселей
Соотношение сторон : 16:9
Частота кадров : 25,000 кадров/сек
Стандарт вещания : PAL
Цветовое пространство : YUV
Субдискретизация насыщенности : 4:2:0
Битовая глубина : 8 бит
Тип развёртки : Прогрессивная
Порядок развёртки : Верхнее поле первое
Метод сжатия : С потерями
Бит/(Пиксели*Кадры) : 0.525
Размер потока : 927 Мбайт (91%)

Аудио
Идентификатор : 189 (0xBD)-128 (0x80)
Формат : AC-3
Формат/Информация : Audio Coding 3
Расширение режима : CM (complete main)
Режим смешивания : DVD-Video
Продолжительность : 23 м.
Вид битрейта : Постоянный
Битрейт : 448 Кбит/сек
Каналы : 6 каналов
Расположение каналов : Front: L C R, Side: L R, LFE
Частота : 48,0 КГц
Битовая глубина : 16 бит
Метод сжатия : С потерями
Задержка видео : -520 мс.
Размер потока : 76,3 Мбайт (7%)










pb.wtf



Скачать Игры киллеров через торрент http://i2.imageban.ru/out/2012/02/17/c0cb11248b9296c28f94f008c5d61b0a.jpg Скачать фильм Игры киллеров через торрент бесплантно в хорошем качестве Описание: Роланд Флинт и Винсент Брэйзил — отъявленные наёмники, мастера восточных единоборств и гуру военного искусства. Винсент ... 5 10 5
Info! Золотая раздача, скачанное не засчитывается.
Торрент: Зарегистрирован [2012-02-17 20:44] · скачан: 174 раз
Статус: √ проверено
Размер: 4.06 GB
Как cкачать? Как скачать Игры киллеров через торрент | UTorrent

28-11-2019 20:33  

Отключить всю рекламу на сайте

    Дорогой пользователь! Огромная просьба, поблагодарите релизера, оцените раздачу и оставьте свои комментарий, если Вы скачали Игры киллеров через торрент бесплатно! Внесите свою лепту в развитие PiratBit!
    Комментировать посты могут только пользователи прошедшие не сложную регистрацию
    Показать сообщения:    

    Игры киллеров через торрент
    Скачать бесплатно Игры киллеров
    Игры киллеров скачать торрент
    Игры киллеров смотреть онлайн
    Cкачать фильм Игры киллеров бесплатно
    Игры киллеров скачать торрент в хорошем качестве
    Игры киллеров смотреть онлайн бесплатно в хорошем качестве


    Вы не можете начинать темы
    Вы не можете отвечать на сообщения
    Вы не можете редактировать свои сообщения
    Вы не можете удалять свои сообщения
    Вы не можете голосовать в опросах
    Вы не можете прикреплять файлы к сообщениям
    Вы можете скачивать файлы