1 сезон

3 сезон

iTunes

1

iTunes

MVO

iTunes

13

1 сезон

RePack

30

Deluxe

pack

Лицензия

ВАЖНО

ИГРА 18+

pack

RePack

MK11

RePack

jed

RePack

fifa19

RePack

RDR2

RePack

NEED FOR SPEED™ PAYBACK

4 сезон

9 сезон

Бесстыжие 9 сезон

Все сериалы

все сериалы на PB.wtf

RePack

FAR CRY 5

Anonymous, доброе утро, мы катастрофически не успеваем собрать деньги на оплату серверов, помогите нам пожалуйста 5,10,15р., для нас важна любая помощь . В качестве благодарности мы отключим Вам всю рекламу на сайте (укажите свой ник в строку Ваше имя)!

×
  
Magnet ссылка

Лапочка 2: Город танца / Honey 2 (Билле Вудрафф / Bille Woodruff) [2011, драма, комедия, музыка, DVD9] R5 pb.wtf

Лапочка 2: Город танца через торрент pb.wtf

Размер: 7.58 GB | Добавлен: 9 лет 5 мес. назад | Торрент скачан:22 раза
Скачать  

18-02-2012 19:53 Лапочка 2: Город танца Скачать торрент  

[font="Georgia"]
Лапочка 2: Город танца / Honey 2
«Go every step of the way»
Страна: США
Студия: Marc Platt Productions, Universal Films
Жанр: драма, комедия, музыка
Год выпуска: 2011
Мировая премьера: 10 июня 2011
Дата выхода DVD: 22 декабря 2011
Продолжительность: 01:46:06
Перевод: Профессиональный (дублированный) [Лицензия]
Cубтитры: английские, итальянские, румынские, украинские, эстонские, латышские, литовские
Оригинальная аудиодорожка: английский
Режиссер: Билле Вудрафф / Bille Woodruff
В ролях: Катерина Грэхэм, Рэнди Вейн, Сейшелл Гэбриел, Марио Лопез, Одрина Пэтридж, Брэндон Молале, Джерри Бедноб, Лонетт МакКи, Мелисса Смит, Лори Энн Гибсон
Описание: В танцевальном фильме на плечи легендарной танцовщицы и хореографа Хани Дэниэлс ложится ответственность за оживленную Марию Беннетт. После проблем с законом Мария возвращается в свой неприглядный родной Бронкс, чтобы начать жизнь сначала, используя свой талант уличной танцовщицы и большие амбиции показать себя.
Вести спокойную жизнь для Марии означает жить с матерью Конни и работать, чтобы кое-как сводить концы с концами. Но редкие ночи в танцевальном клубе дают Марии возможность оторваться, и вспомнить, что такое радость и энергия, о которых она практически забыла. Талант Марии брутально двигаться замечает Брендон, который приглашает ее присоединиться к группе танцоров-самоучек под названием HD. Мастерство Марии привлекает ее бывшего бойфренда Луи, харизматичного лидера побеждающей танцевальной команды 718, который пытается вернуть ее в мир улиц — мир, из которого она пытается бежать.

Бонусы: Танцевальные сцены, работа танцоров: рассказ о съемка, танцуй или пытайся научиться

Релиз группы:
Качество: DVD9 R5
Формат: DVD-Video
Видео кодек: MPEG2
Аудио кодек: AC3
Видео: PAL 16:9 (720x576(0.636)) MPEG Video, 25,000 кадр/сек, 6599 Кбит/сек
Аудио #1: English (Dolby AC3, 6 ch) 384 Кбит/сек, 48,0 КГц
Аудио #2: Italiano (Dolby AC3, 6 ch) 384 Кбит/сек, 48,0 КГц
Аудио #3: Russian (Dolby AC3, 6 ch) 384 Кбит/сек, 48,0 КГц



Title: Рабочий
Size: 7.58 Gb ( 7 945 068 KBytes ) - DVD-9
Enabled regions: 1, 2, 3, 4, 5, 6, 7, 8

VTS_01 :
Play Length: 00:01:52
Video: PAL 16:9 (720x576) VBR, Auto Letterboxed
Audio:
Italiano (Dolby AC3, 2 ch)

VTS_02 :
Play Length: 00:00:12+00:01:51+00:00:08+00:01:48
Video: PAL 16:9 (720x576) VBR, Auto Letterboxed
Audio:
English (Dolby AC3, 2 ch)
Subtitles:
English
Italiano
Russian
Romanian

VTS_03 :
Play Length:
Video: PAL 16:9 (720x576) VBR, Auto Letterboxed

VTS_04 :
Play Length: 00:13:14+00:07:14
Video: PAL 16:9 (720x576) VBR, Auto Letterboxed
Audio:
English (Dolby AC3, 2 ch)
Subtitles:
English

VTS_05 :
Play Length: 01:46:06
Video: PAL 16:9 (720x576) VBR, Auto Letterboxed
Audio:
English (Dolby AC3, 6 ch)
Italiano (Dolby AC3, 6 ch)
Russian (Dolby AC3, 6 ch)
Subtitles:
English
Italiano
Romanian
Ukrainian
Estonian
Latvian
Lithuanian
Italiano
Russian

VTS_06 :
Play Length: 00:04:14+00:11:12+00:02:32+00:02:07+00:02:31+00:02:04+00:01:58
Video: PAL 16:9 (720x576) VBR, Auto Letterboxed
Audio:
English (Dolby AC3, 2 ch)
Subtitles:
English

VTS_07 :
Play Length: 00:00:23
Video: PAL 16:9 (720x576) VBR, Auto Letterboxed
Audio:
English (Dolby AC3, 6 ch)

VTS_08 :
Play Length: 00:00:14
Video: PAL 16:9 (720x576) VBR, Auto Letterboxed
Audio:
English (Dolby AC3, 6 ch)
Общее
Полное имя : G:\Новинки 2012\Lapochka.2.Gorod.tanca.2011.DVD9\VIDEO_TS\VTS_05_1.VOB
Формат : MPEG-PS
Размер файла : 1024 Мбайт
Продолжительность : 18 м.
Режим общего битрейта : Переменный
Общий поток : 7908 Кбит/сек

Видео
Идентификатор : 224 (0xE0)
Формат : MPEG Video
Версия формата : Version 2
Профиль формата : Main@Main
Параметр BVOP формата : Да
Параметр матрицы формата : Выборочная
Продолжительность : 18 м.
Вид битрейта : Переменный
Битрейт : 6599 Кбит/сек
Максимальный битрейт : 9800 Кбит/сек
Ширина : 720 пикселей
Высота : 576 пикселей
Соотношение сторон : 16:9
Частота кадров : 25,000 кадров/сек
Стандарт вещания : PAL
Цветовое пространство : YUV
Субдискретизация насыщенности : 4:2:0
Битовая глубина : 8 бит
Тип развёртки : Чересстрочная
Порядок развёртки : Верхнее поле первое
Метод сжатия : С потерями
Бит/(Пиксели*Кадры) : 0.636
Размер потока : 854 Мбайт (83%)

Аудио #1
Идентификатор : 189 (0xBD)-128 (0x80)
Формат : AC-3
Формат/Информация : Audio Coding 3
Расширение режима : CM (complete main)
Режим смешивания : DVD-Video
Продолжительность : 18 м.
Вид битрейта : Постоянный
Битрейт : 384 Кбит/сек
Каналы : 6 каналов
Расположение каналов : Front: L C R, Side: L R, LFE
Частота : 48,0 КГц
Битовая глубина : 16 бит
Метод сжатия : С потерями
Размер потока : 49,7 Мбайт (5%)

Аудио #2
Идентификатор : 189 (0xBD)-129 (0x81)
Формат : AC-3
Формат/Информация : Audio Coding 3
Расширение режима : CM (complete main)
Режим смешивания : DVD-Video
Продолжительность : 18 м.
Вид битрейта : Постоянный
Битрейт : 384 Кбит/сек
Каналы : 6 каналов
Расположение каналов : Front: L C R, Side: L R, LFE
Частота : 48,0 КГц
Битовая глубина : 16 бит
Метод сжатия : С потерями
Размер потока : 49,7 Мбайт (5%)

Аудио #3
Идентификатор : 189 (0xBD)-130 (0x82)
Формат : AC-3
Формат/Информация : Audio Coding 3
Расширение режима : CM (complete main)
Режим смешивания : DVD-Video
Продолжительность : 18 м.
Вид битрейта : Постоянный
Битрейт : 384 Кбит/сек
Каналы : 6 каналов
Расположение каналов : Front: L C R, Side: L R, LFE
Частота : 48,0 КГц
Битовая глубина : 16 бит
Метод сжатия : С потерями
Размер потока : 49,7 Мбайт (5%)

Текст #1
Идентификатор : 189 (0xBD)-32 (0x20)
Формат : RLE
Формат/Информация : Run-length encoding
Режим смешивания : DVD-Video

Текст #2
Идентификатор : 189 (0xBD)-33 (0x21)
Формат : RLE
Формат/Информация : Run-length encoding
Режим смешивания : DVD-Video

Текст #3
Идентификатор : 189 (0xBD)-34 (0x22)
Формат : RLE
Формат/Информация : Run-length encoding
Режим смешивания : DVD-Video

Текст #4
Идентификатор : 189 (0xBD)-35 (0x23)
Формат : RLE
Формат/Информация : Run-length encoding
Режим смешивания : DVD-Video

Текст #5
Идентификатор : 189 (0xBD)-36 (0x24)
Формат : RLE
Формат/Информация : Run-length encoding
Режим смешивания : DVD-Video

Текст #6
Идентификатор : 189 (0xBD)-37 (0x25)
Формат : RLE
Формат/Информация : Run-length encoding
Режим смешивания : DVD-Video

Текст #7
Идентификатор : 189 (0xBD)-38 (0x26)
Формат : RLE
Формат/Информация : Run-length encoding
Режим смешивания : DVD-Video










pb.wtf



Скачать Лапочка 2: Город танца через торрент http://i3.imageban.ru/out/2012/02/18/23c87f58a9b293bce683efeb0813a96c.jpg Скачать фильм Лапочка 2: Город танца через торрент бесплантно в хорошем качестве Описание: В танцевальном фильме на плечи легендарной танцовщицы и хореографа Хани Дэниэлс ложится ответственность за оживленную Марию ... 9 10 1
Info! Золотая раздача, скачанное не засчитывается.
Торрент: Зарегистрирован [2012-02-18 19:53] · скачан: 22 раз
Статус: √ проверено
Размер: 7.58 GB
Как cкачать? Как скачать Лапочка 2: Город танца через торрент | UTorrent

28-11-2019 20:33  

Отключить всю рекламу на сайте

    Дорогой пользователь! Огромная просьба, поблагодарите релизера, оцените раздачу и оставьте свои комментарий, если Вы скачали Лапочка 2: Город танца через торрент бесплатно! Внесите свою лепту в развитие PiratBit!
    Комментировать посты могут только пользователи прошедшие не сложную регистрацию
    Показать сообщения:    

    Лапочка 2: Город танца через торрент
    Скачать бесплатно Лапочка 2: Город танца
    Лапочка 2: Город танца скачать торрент
    Лапочка 2: Город танца смотреть онлайн
    Cкачать фильм Лапочка 2: Город танца бесплатно
    Лапочка 2: Город танца скачать торрент в хорошем качестве
    Лапочка 2: Город танца смотреть онлайн бесплатно в хорошем качестве


    Вы не можете начинать темы
    Вы не можете отвечать на сообщения
    Вы не можете редактировать свои сообщения
    Вы не можете удалять свои сообщения
    Вы не можете голосовать в опросах
    Вы не можете прикреплять файлы к сообщениям
    Вы можете скачивать файлы