Всегда рабочее зеркало без VPN и Proxy просто перед .vidak.icu напиши любое слово или цифру, Пример http://8b71.vidak.icu

MVO

2 сезон

2 сезон

1

1 сезон

iTunes

2 сезон

13

1 сезон

Распродажа

pack

Рекомендуем

Пиратка

30

ВАЖНО

RePack

MK11

RePack

jed

RePack

fifa19

RePack

RDR2

RePack

NEED FOR SPEED™ PAYBACK

Кинопоиск HD

6 сезон

 Острые козырьки 6 сезон

Все сериалы

все сериалы на PB.wtf

RePack

FAR CRY 5

Anonymous, нам критически не хватает 5601 руб. на оплату серверов и переферии за Апрель, помоги нам пожалуйста, вся надежда только на тебя. В благодарность мы отключим тебе всю рекламу на сайте!

×
  
Magnet ссылка

Сделано в СССР (сериал) (Вадим Островский) (1-16 серии из 16) [2011 г., драма, DVD9 R5] pb.wtf

Смотреть онлайн Сделано в СССР | Скачать    Ребята, помогите собрать деньги на оплату серверов!!!

19-02-2012 23:02 Сделано в СССР Скачать торрент  


Сделано в СССР
Год выпуска: 2011
[font="Georgia"]Страна
: Россия / Всемирные Русские Студии
[font="Georgia"]Жанр
: драма
[font="Georgia"]Продолжительность
: 720 минут
[font="Georgia"]Перевод: Оригинальное
[font="Georgia"]Режиссер: Вадим Островский
[font="Georgia"]Продюссер: Тимур Вайнштейн, Роман Елистратов, Александр Боковиков
[font="Georgia"]Сценарий: Вадим Зобин
[font="Georgia"]В ролях: Борис Галкин, Нина Усатова, Дмитрий Орлов, Иван Жидков, Мария Шукшина, Александр Зельский, Даниил Спиваковский, Константин Лавроненко, Анна Яновская, Агния Кузнецова
[font="Georgia"]Описание: Глава семейства, Иван Шишов, пережил коллективизацию, голод, раскулачивание, войну. Воевал в танковых войсках, дважды горел, но выжил. У Ивана и его жены Марьи трое детей, дочь и два сына: Татьяна, Григорий и Андрей. Дети выросли и разъехались, а старшие Шишовы одни доживают свой век в деревенском доме. Начало повествования приходится на драматичный момент жизни Ивана и Марьи: их село обречено, на его месте будет построено водохранилище новой гидростанции. Дочь забирает родителей к себе в город, но это только начало новых проблем. Им придется столкнуться и с бытовыми, и с бюрократическими, и с социальными трудностями. После неудачной попытки эмиграции бывший муж Татьяны Владимир становится диссидентом, и это неминуемо отразится на жизни всей семьи. Старшего сына Шишовых, Григория, ждет война в Анголе, ранение, инвалидность и маленькая пенсия. Младшего сына, Андрея, жизнь поставит перед нелегким выбором: блестящее партийное будущее или любовь. Впереди у героев мелодрамы калейдоскоп типичных для 70-х событий и явлений — «цеховики», публичное отречение от неблагонадежных родственников, помещение в «психушку» за политические убеждения... Но мужество и порядочность помогают всем членам семьи Шишовых сделать правильный выбор и устоять в сложных обстоятельствах.
[font="Georgia"]Премьера в мире: 14 августа 2011
[font="Georgia"]Премьера (РФ): 12 сентября 2011
[font="Georgia"]Релиз на DVD: 2 февраля 2012, «Русское счастье»,
[font="Georgia"]Качество: DVD9 R5
[font="Georgia"]Формат: DVD Video
[font="Georgia"]Видео кодек: MPEG2
[font="Georgia"]Аудио кодек: AC3
[font="Georgia"]Видео: PAL 16:9 (352 x 288(1.778)) MPEG Video, 25.000 fps , 1283 Кбит/сек
[font="Georgia"]Аудио#1: Russian (Dolby AC3, 2 ch) 192 Кбит/сек , 48,0 КГц


Код:

Общее
Полное имя                               : D:\Кино\Sdelano.v.SSSR.2011.O.DVD.ELEKTRI4KA\VIDEO_TS\VTS_01_1.VOB
Формат                                   : MPEG-PS
Размер файла                             : 1024 Мбайт
Продолжительность                        : 8 м. 59 с.
Режим общего битрейта                    : Переменный
Общий поток                              : 15,9 Мбит/сек

Видео
Идентификатор                            : 224 (0xE0)
Формат                                   : MPEG Video
Версия формата                           : Version 2
Профиль формата                          : Main@Main
Параметр BVOP формата                    : Да
Параметр матрицы формата                 : По умолчанию
Продолжительность                        : 8 м. 59 с.
Вид битрейта                             : Переменный
Битрейт                                  : 15,5 Мбит/сек
Ширина                                   : 352 пикселя
Высота                                   : 288 пикселей
Соотношение сторон                       : 16:9
Частота кадров                           : 25,000 кадров/сек
Стандарт вещания                         : PAL
Цветовое пространство                    : YUV
Субдискретизация насыщенности            : 4:2:0
Битовая глубина                          : 8 бит
Тип развёртки                            : Прогрессивная
Метод сжатия                             : С потерями
Бит/(Пиксели*Кадры)                      : 6.123
Размер потока                            : 997 Мбайт (97%)

Аудио
Идентификатор                            : 189 (0xBD)-128 (0x80)
Формат                                   : AC-3
Формат/Информация                        : Audio Coding 3
Расширение режима                        : CM (complete main)
Режим смешивания                         : DVD-Video
Продолжительность                        : 8 м. 58 с.
Вид битрейта                             : Постоянный
Битрейт                                  : 96,0 Кбит/сек
Каналы                                   : 2 канала
Расположение каналов                     : Front: L R
Частота                                  : 48,0 КГц
Битовая глубина                          : 16 бит
Метод сжатия                             : С потерями
Размер потока                            : 6,17 Мбайт (1%)

Меню


Код:

Title: Новый том
Size: 7.35 Gb ( 7 708 180 KBytes ) - DVD-9
Enabled regions: 1, 2, 3, 4, 5, 6, 7, 8

VTS_01 :
  Play Length: 00:45:19+00:45:06+00:45:22+00:45:04+00:45:21+00:45:23+00:45:01+00:45:25+00:45:28+00:44:54+00:44:59+00:45:17+00:45:05+00:45:26
  Video: PAL 16:9 (352x576) CBR, Auto Pan&Scan
  Audio:
      English (Dolby AC3, 2 ch)

VTS_02 :
  Play Length: 00:00:22
  Video: PAL 4:3 (720x576) VBR
  Audio:
      English (Dolby AC3, 2 ch)

VTS_03 :
  Play Length: 00:00:16
  Video: PAL 16:9 (720x576) VBR, Auto Pan&Scan
  Audio:
      English (Dolby AC3, 2 ch)

Menu Video:
      PAL 4:3 (720x576) VBR
Menu Subtitles:
      Not specified
Menu English Language Unit :
      Root Menu





pb.wtf



Скачать
Чтобы иметь возможность скачивать с Торрент Трекера, нужно Зарегистрироваться

Как скачивать  ·  Рейтинг и ограничения



Последний раз редактировалось: paul08 (2012-02-21 20:33), всего редактировалось 6 раз(а)

28-11-2019 20:33  

Отключить всю рекламу на сайте

19-02-2012 23:16 Сделано в СССР Скачать торрент  

1. Укажи битрейт и частоту каров видео
2. Укажи битрейт и частоту дискретизации аудио

Для изменения статуса раздачи, после исправления уведомить в со ссылкой на раздачуpb.wtf



    Дорогой пользователь! Огромная просьба, поблагодарите релизера, оцените раздачу и оставьте свои комментарий, если Вы скачали Сделано в СССР через торрент бесплатно!
    Комментировать посты могут только пользователи прошедшие не сложную регистрацию
    Показать сообщения:    

    Сделано в СССР через торрент
    Скачать бесплатно Сделано в СССР
    Сделано в СССР скачать торрент
    Сделано в СССР смотреть онлайн
    Cкачать фильм Сделано в СССР бесплатно
    Сделано в СССР скачать торрент в хорошем качестве
    Сделано в СССР смотреть онлайн бесплатно в хорошем качестве


    Вы не можете начинать темы
    Вы не можете отвечать на сообщения
    Вы не можете редактировать свои сообщения
    Вы не можете удалять свои сообщения
    Вы не можете голосовать в опросах
    Вы не можете прикреплять файлы к сообщениям
    Вы не можете скачивать файлы