Мега распродажа FORZA HORIZON 4 ULTIMATE+ВСЕ DLC+ОНЛАЙН всего за 499р. 349 руб. (супер цена). Внимание количество ограничено!!!

Лицензия

30

iTunes

мы

iTunes

1

1 сезон

Чернобыль

1 сезон

Ральф против интернета

MVO

Покемон. Детектив Пикачу

8 сезон

Игра престолов

iTunes

1+1

ИГРА 18+

pack

ВАЖНО

!!Акция!!

Alien_RageХит недели

RePack

Resident Evil 21
pack

RePack

Metro:Exodus

!!Акция!!

Alien_Rage

RePack

fifa19

RePack

Assassins Creed: Odyssey

RePack

NEED FOR SPEED™ PAYBACK

3 сезон

9 сезон

Бесстыжие 9 сезон

Все сериалы

все сериалы на PB.wtf

RePack

FAR CRY 5
Ребята, катастрофически не хватает 2730р. для оплаты серверов за МАЙ (всвязи с блокировками трафик упал в 3 раза), 1-2р., выручайте.
  

Хатико: Самый верный друг / Hachiko: A Dog's Story (Лассе Халльстрём) [2009 г., драма, семейный, HDRip-AVC] pb.wtf

Хатико: Самый верный друг через торрент pb.wtf

Раздают: 10 [ 0 KB/s ]
Размер: 1.47 GB | Добавлен: 7 лет 4 мес. назад | Торрент скачан:1795 раз
Скачать  

20-02-2012 14:32 Хатико: Самый верный друг Скачать торрент  


Хатико: Самый верный друг / Hachiko: A Dog's Story

Год выпуска: 2009
Страна: США, Великобритания
Жанр: драма, семейный
Продолжительность: 01:33:14
Перевод: Профессиональный (полное дублирование) [Лицензия]
Режиссер: Лассе Халльстрём
Бюджет: $16 000 000
Премьера в мире: 13 июня 2009

В ролях: Ричард Гир, Сара Ремер, Джоан Аллен, Джейсон Александр, Кэри-Хироюки Тагава, Эрик Авари, Роберт Капрон, Давиния МакФэдден, Кевин ДеКосте, Донна Сорбелло

Фильм поставлен по известной правдивой истории, которая произошла в Японии в 20-х годах. Пес каждый день провожал и встречал своего хозяина на вокзале. Потом хозяин неожиданно умер, но пес в течение 9 лет КАЖДЫЙ день в 5 часов вечера приходил на вокзал встречать хозяина и ждал его до последнего поезда. Потом японцы поставили ему памятник на том месте, где он постоянно ждал хозяина.
Качество: HDRip-AVC
Формат: MKV
Видео кодек: H.26x
Аудио кодек: AC3
Видео: 960х520 (1,860), 23.976 fps, AVC (x264), High@L4.1, ~ 1870 kbps avg, 0.156 bit/pixel
Аудио: 48 kHz, AC3 Dolby Digital, 3/2 (L,C,R,l,r) + LFE ch, ~384 kbps avg

Релиз от | | by Dean24
Видео:
Идентификатор: 1
Формат: AVC
Формат/Информация: Advanced Video Codec
Профиль формата: High@L4.1
Параметр CABAC формата: Да
Параметр ReFrames формата: 8 кадров
Идентификатор кодека: V_MPEG4/ISO/AVC
Продолжительность: 1 ч. 33 м.
Битрейт: 1870 Кбит/сек
Ширина: 960 пикс.
Высота: 520 пикс.
Соотношение сторон: 1,860
Режим частоты кадров: Переменный
Частота кадров: 23,976 кадр/сек
Цветовое пространство: YUV
Подвыборка цветности: 4:2:0
Битовая глубина: 8 бит
Тип развёртки: Прогрессивная
Бит/(Пиксели*Кадры): 0.156
Размер потока: 1,19 Гбайт (81%)
Заголовок: 2009.BDRip.720p
Библиотека кодирования: x264 core 116 r2019M 9cc407d
Настройки программы: cabac=1 / ref=9 / deblock=1:-2:-2 / analyse=0x3:0x133 / me=umh / subme=9 / psy=1 / psy_rd=1.00:0.20 / mixed_ref=1 / me_range=32 / chroma_me=1 / trellis=1 / 8x8dct=1 / cqm=0 / deadzone=21,11 / fast_pskip=1 / chroma_qp_offset=-3 / threads=6 / sliced_threads=0 / nr=0 / decimate=1 / interlaced=0 / bluray_compat=0 / constrained_intra=0 / bframes=9 / b_pyramid=1 / b_adapt=2 / b_bias=0 / direct=3 / weightb=1 / open_gop=0 / weightp=2 / keyint=230 / keyint_min=23 / scenecut=40 / intra_refresh=0 / rc_lookahead=60 / rc=2pass / mbtree=1 / bitrate=1870 / ratetol=1.0 / qcomp=0.60 / qpmin=0 / qpmax=69 / qpstep=4 / cplxblur=20.0 / qblur=0.5 / ip_ratio=1.40 / aq=1:1.00
Язык: English

Аудио:
Идентификатор: 2
Формат: AC-3
Формат/Информация: Audio Coding 3
Расширение режима: CM (complete main)
Идентификатор кодека: A_AC3
Продолжительность: 1 ч. 33 м.
Вид битрейта: Постоянный
Битрейт: 384 Кбит/сек
Каналы: 6 каналов
Расположение каналов: Front: L C R, Side: L R, LFE
Частота: 48,0 КГц
Битовая глубина: 16 бит
Метод сжатия: С потерями
Размер потока: 256 Мбайт (17%)
Заголовок: DUB
Язык: Russian









pb.wtf



Скачать Хатико: Самый верный друг через торрент http://i27.fastpic.ru/big/2012/0220/3a/aee38c59e54922e7439e9c3b24077d3a.jpg Скачать фильм Хатико: Самый верный друг через торрент бесплантно в хорошем качестве В ролях: Ричард Гир, Сара Ремер, Джоан Аллен, Джейсон Александр, Кэри-Хироюки Тагава, Эрик Авари, Роберт Капрон, Давиния МакФэдден, Кевин ... 9.5 10 27
Info! Золотая раздача, скачанное не засчитывается.
Торрент: Зарегистрирован [2012-02-20 14:32] · скачан: 1 795 раз
Статус: √ проверено
Размер: 1.47 GB
Как cкачать? Как скачать Хатико: Самый верный друг через торрент | qTorrent


>> Регистрируемся здесь <<






Отзывы и комментарии о схеме читаем и пишем здесь: ---> Отзывы и комментарии о схеме

Новые благодарочки в телеграм довольных пользователей:
скриншот   скриншот   скриншот   скриншот   скриншот

20-02-2012 14:49 Хатико: Самый верный друг Скачать торрент  

Великолепный фильм)))pb.wtf



20-02-2012 15:04 Хатико: Самый верный друг Скачать торрент  

одна из лучших картин что я когда либо видел к таким еще отношу я-легендаpb.wtf



20-02-2012 16:15 Хатико: Самый верный друг Скачать торрент  

блин я и не знал что она 2009 года, думал год так 2005pb.wtf



21-02-2012 08:13 Хатико: Самый верный друг Скачать торрент  

суперpb.wtf



26-04-2012 07:30 Хатико: Самый верный друг Скачать торрент  

Надо посмотреть, вспомнить что такое настоящая верность!pb.wtf



29-04-2012 18:39 Хатико: Самый верный друг Скачать торрент  

Не советую смотреть - поберегите свои нервы
А если честно, то это самый трогательный фильм в мире pb.wtf



01-07-2013 06:26 Хатико: Самый верный друг Скачать торрент  

классный фильм
аш плакать хочетсяpb.wtf



03-03-2015 09:21 Хатико: Самый верный друг Скачать торрент  

Потрясающий фильм
качество и звук хорошие)pb.wtf



    Дорогой пользователь! Огромная просьба, поблагодарите релизера, оцените раздачу и оставьте свои комментарий, если Вы скачали Хатико: Самый верный друг через торрент бесплатно! Внесите свою лепту в развитие PiratBit!
    Комментировать посты могут только пользователи прошедшие не сложную регистрацию
    Показать сообщения:    

    Хатико: Самый верный друг через торрент
    Скачать бесплатно Хатико: Самый верный друг
    Хатико: Самый верный друг скачать торрент
    Хатико: Самый верный друг смотреть онлайн
    Cкачать фильм Хатико: Самый верный друг бесплатно
    Хатико: Самый верный друг скачать торрент в хорошем качестве
    Хатико: Самый верный друг смотреть онлайн бесплатно в хорошем качестве


    Вы не можете начинать темы
    Вы не можете отвечать на сообщения
    Вы не можете редактировать свои сообщения
    Вы не можете удалять свои сообщения
    Вы не можете голосовать в опросах
    Вы не можете прикреплять файлы к сообщениям
    Вы можете скачивать файлы