Ссылка на приватное зеркало нашего сайта всего за 1$. Внимание количество ограничено!!!

2 сезон

iTunes

1 сезон

1

iTunes

iTunes

iTunes

1 сезон

RePack

30

ИГРА 18+

pack

ВАЖНО

!!Акция!!

Alien_RageХит недели

RePack

MK11
pack

Забери бонус

RePack

jed

!!Акция!!

Alien_Rage

RePack

fifa19

RePack

Assassins Creed: Odyssey

RePack

NEED FOR SPEED™ PAYBACK

4 сезон

9 сезон

Бесстыжие 9 сезон

Все сериалы

все сериалы на PB.wtf

RePack

FAR CRY 5
  

Анальные Акробатки 7 / Anal Acrobats 7 (Jay Sin) [19.12.2011 г., Gonzo, Anal, Lesbian, Closeups, Shaved, BDRip, лицензия, 1080p] pb.wtf

Анальные Акробатки 7 через торрент pb.wtf

Размер: 14.19 GB | Добавлен: 8 лет 8 мес. назад | Торрент скачан:323 раза
Скачать  

21-02-2012 13:58 Анальные Акробатки 7 Скачать торрент  

[font=fantasy]Анальные Акробатки 7 / Anal Acrobats 7 (1080p)



Год выпуска: 19 декабря 2011
Страна: USA
Жанр: Gonzo, Anal, Lesbian, Closeups, Shaved
Продолжительность: 03:53:00
Перевод: Отсутствует
Тип релиза: Лицензия

Режиссер: Jay Sin

В ролях: Jayda Diamonde, Sean Michaels, Proxy Paige, Roxy Raye , Hotkinkyjo, Timo Hardy, Alysa,
Isabella Clark , Anita Hengher , Omar Galanti, Kinky Niky

Описание: In director Jay Sin's ass-packed two-disc butt bonanza "Anal Acrobats 7," his infamously extreme anal stunt work raises
the rectal stakes for a perverse cast of sensuous asshole athletes. Slender, hot Hotkinkyjo demonstrates outrageous anal talents - she fills her enormous rear
cavity with multiple massive sex toys and large vegetables; and a menacing suction pump visibly swells her internal ass meat! Wild man Timo Hardy dominates
the anal debutante, shoving objects into her colon with his erect cock. Next, baby-faced blonde Jayda Diamonde does some hard-core acrobatics with her bald
pussy and well-trained sphincter, pushing gigantic balls from her anus; then she takes on Sean Michaels' huge black cock in a hot interracial suck-and-butt-fuck
session that earns Jayda a brimming mouthful of semen. Dressed in native folk costumes, Alysa, Anita Hengher and Isabella Clark share Omar Galanti's fat
schlong in a seasonal festival of anal gaping, ass-to-mouth cocksucking and rim jobs. They use big toys and, appropriately, large, butt-stretching Russian nesting
dolls! Spunky young American lesbians Proxy Paige and Roxy Raye rim each other with melting candies and all-day suckers, creating a gooey, drooling, sugary
mess of their puckers until Roxy's nasty prolapse blooms bright red. Finally, Hotkinkyjo and Alysa return for an all-girl, football-themed "Super Bowel" threesome
with strap-on wielding blonde Kinky Niky. Hotkinkyjo sets a new world record for balls in her asshole. With bonus footage and crazy outtakes, "Anal Acrobats 7"
shows the gaping edge of high-stakes ass play!.

Похожие раздачи: Anal Acrobats

Доп. информация: http://www.evilangelvideo.com/title/1000009662

Качество: BDRip (1080p)
Формат: MP4
Видео кодек: H.264
Аудио кодек: AAC
Видео: MPEG4 Video (H264) 1920x1080 29.97fps
Аудио: AAC 44100Hz stereo 1411kbps

Media Info одного файла
General
Complete name : K:\Other\Anal.Acrobats.7.XXX.1080p-HDSTaRS\Anal.Acrobats.7.Scene.1.XXX.1080p-HDSTaRS.mp4
Format : MPEG-4
Format profile : Base Media
Codec ID : isom
File size : 2.46 GiB
Duration : 49mn 9s
Overall bit rate mode : Variable
Overall bit rate : 7 179 Kbps
Writing application : Lavf52.93.0

Video
ID : 1
Format : AVC
Format/Info : Advanced Video Codec
Format profile : High@L4.0
Format settings, CABAC : Yes
Format settings, ReFrames : 4 frames
Codec ID : avc1
Codec ID/Info : Advanced Video Coding
Duration : 49mn 9s
Bit rate : 7 000 Kbps
Width : 1 920 pixels
Height : 1 080 pixels
Display aspect ratio : 16:9
Frame rate mode : Constant
Frame rate : 29.970 fps
Color space : YUV
Chroma subsampling : 4:2:0
Bit depth : 8 bits
Scan type : Progressive
Bits/(Pixel*Frame) : 0.113
Stream size : 2.41 GiB (98%)
Writing library : x264 core 107
Encoding settings : cabac=1 / ref=3 / deblock=1:0:0 / analyse=0x3:0x113 / me=umh / subme=6 / psy=1 / psy_rd=1.00:0.00 / mixed_ref=1 / me_range=16 / chroma_me=1 / trellis=0 / 8x8dct=1 / cqm=0 / deadzone=21,11 / fast_pskip=1 / chroma_qp_offset=-2 / threads=1 / sliced_threads=0 / nr=0 / decimate=1 / interlaced=0 / constrained_intra=0 / bframes=2 / b_pyramid=2 / b_adapt=2 / b_bias=0 / direct=2 / weightb=1 / open_gop=0 / weightp=0 / keyint=30 / keyint_min=16 / scenecut=0 / intra_refresh=0 / rc_lookahead=30 / rc=abr / mbtree=1 / bitrate=7000 / ratetol=1.0 / qcomp=0.60 / qpmin=1 / qpmax=31 / qpstep=4 / ip_ratio=1.41 / aq=1:1.00

Audio
ID : 2
Format : AAC
Format/Info : Advanced Audio Codec
Format profile : LC
Codec ID : 40
Duration : 49mn 9s
Bit rate mode : Variable
Bit rate : 151 Kbps
Channel(s) : 2 channels
Channel positions : Front: L R
Sampling rate : 44.1 KHz
Compression mode : Lossy
Stream size : 53.0 MiB (2%)
pb.wtf



pack Скачать Анальные Акробатки 7 через торрент http://i27.fastpic.ru/big/2012/0110/20/dd64ea8b0a75c86fa368e0c87cecbd20.jpg Скачать фильм Анальные Акробатки 7 через торрент бесплантно в хорошем качестве Описание: In director Jay Sin's ass-packed two-disc butt bonanza "Anal Acrobats 7," his infamously extreme anal stunt work raises the ... 10 10 7
Info! Золотая раздача, скачанное не засчитывается.
Торрент: Зарегистрирован [2012-02-21 13:58] · скачан: 323 раз
Статус: √ проверено
Размер: 14.19 GB
Как cкачать? Как скачать Анальные Акробатки 7 через торрент | qTorrent

28-11-2019 20:33  

Отключить всю рекламу на сайте

19-11-2014 10:08 Анальные Акробатки 7 Скачать торрент  

Встанте кто-нибудь на раздачуpb.wtf



pack
    Дорогой пользователь! Огромная просьба, поблагодарите релизера, оцените раздачу и оставьте свои комментарий, если Вы скачали Анальные Акробатки 7 через торрент бесплатно! Внесите свою лепту в развитие PiratBit!
    Комментировать посты могут только пользователи прошедшие не сложную регистрацию
    Показать сообщения:    

    Анальные Акробатки 7 через торрент
    Скачать бесплатно Анальные Акробатки 7
    Анальные Акробатки 7 скачать торрент
    Анальные Акробатки 7 смотреть онлайн
    Cкачать фильм Анальные Акробатки 7 бесплатно
    Анальные Акробатки 7 скачать торрент в хорошем качестве
    Анальные Акробатки 7 смотреть онлайн бесплатно в хорошем качестве


    Вы не можете начинать темы
    Вы не можете отвечать на сообщения
    Вы не можете редактировать свои сообщения
    Вы не можете удалять свои сообщения
    Вы не можете голосовать в опросах
    Вы не можете прикреплять файлы к сообщениям
    Вы можете скачивать файлы