Ссылка на приватное зеркало нашего сайта всего за 1$. Внимание количество ограничено!!!

2 сезон

iTunes

1 сезон

1

iTunes

iTunes

iTunes

1 сезон

RePack

30

ИГРА 18+

pack

ВАЖНО

!!Акция!!

Alien_RageХит недели

RePack

MK11
pack

Забери бонус

RePack

jed

!!Акция!!

Alien_Rage

RePack

fifa19

RePack

Assassins Creed: Odyssey

RePack

NEED FOR SPEED™ PAYBACK

4 сезон

9 сезон

Бесстыжие 9 сезон

Все сериалы

все сериалы на PB.wtf

RePack

FAR CRY 5
  

Хранитель времени / Hugo (Мартин Скорсезе) [2011 г., Детектив, семейный, BDRip (1080p), лицензия] pb.wtf

Хранитель времени через торрент pb.wtf

Размер: 9.14 GB | Добавлен: 8 лет 8 мес. назад | Торрент скачан:219 раз
Скачать  

22-02-2012 13:55 Хранитель времени Скачать торрент  

Хранитель времени / Hugo

Год выпуска: 2011
Страна: США / Paramount Pictures, GK Films, Infinitum Nihil
Жанр: Детектив, семейный
Продолжительность: 02:06:21
Перевод: Дублированное [лицензия]
Тип релиза: Лицензия

Режиссер: Мартин Скорсезе

В ролях: Хлоя Морец, Эмили Мортимер, Джуд Лоу, Хелен МакКрори, Кристофер Ли, Саша Барон Коэн, Бен Кингсли, Рэй Уинстоун, Ричард Гриффитс, Аса Баттерфилд

Описание: Действие разворачивается во Франции начала 30-х. Главный герой, мальчик-сирота Хьюго, проживающий в стенах парижского вокзала со своим дядей-алкоголиком, случайно находит таинственный механизм, созданный знаменитым фильммейкером Жоржем Мелье. Эта находка запускает цепную реакцию удивительных событий, которые в конечном итоге помогут Хьюго разгадать тайну его покойного отца.

Качество: BDRip (1080p)
Формат: MKV
Видео кодек: Другой MPEG4
Аудио кодек: AC3
Видео: MPEG-4 AVC, 8399 Кбит/с, 1920x1080, 23.976 кадр/с
Аудио#1: Русский (AC3, 6 ch, 448 Кбит/с, 48kHz)
Аудио#2: английский (DTS, 6 ch, 1510 Кбит/с, 48kHz)


Общее
Уникальный идентификатор : 213532265226988770853969394392281259084 (0xA0A4D180A758247D8AC8584718A21C4C)
Полное имя : C:My DownloadsHraniteli.vremeni.2011.x264.BDRip.1080p.Goliaf.mkv
Формат : Matroska
Версия формата : Version 2
Размер файла : 9,14 Гбайт
Продолжительность : 2 ч. 6 м.
Общий поток : 10,4 Мбит/сек
Название фильма : -::: ed_rez :::-
Дата кодирования : UTC 2012-02-22 11:46:27
Программа кодирования : mkvmerge v5.3.0 ('I could have danced') built on Feb 9 2012 10:38:07
Библиотека кодирования : libebml v1.2.3 + libmatroska v1.3.0

Видео
Идентификатор : 1
Формат : AVC
Формат/Информация : Advanced Video Codec
Профиль формата : High@L4.1
Параметр CABAC формата : Да
Параметр ReFrames формата : 4 кадра
Идентификатор кодека : V_MPEG4/ISO/AVC
Продолжительность : 2 ч. 6 м.
Битрейт : 8399 Кбит/сек
Ширина : 1920 пикселей
Высота : 1080 пикселей
Соотношение сторон : 16:9
Частота кадров : 23,976 кадра/сек
Цветовое пространство : YUV
Субдискретизация насыщенности : 4:2:0
Битовая глубина : 8 бит
Тип развёртки : Прогрессивная
Бит/(Пиксели*Кадры) : 0.169
Размер потока : 7,23 Гбайт (79%)
Заголовок : Хранитель времени / Hugo / 2011
Библиотека кодирования : x264 core 120 r2164 da19765
Настройки программы : cabac=1 / ref=4 / deblock=1:0:0 / analyse=0x3:0x113 / me=umh / subme=8 / psy=1 / psy_rd=1.00:0.00 / mixed_ref=1 / me_range=16 / chroma_me=1 / trellis=1 / 8x8dct=1 / cqm=0 / deadzone=21,11 / fast_pskip=1 / chroma_qp_offset=-2 / threads=12 / sliced_threads=0 / nr=0 / decimate=1 / interlaced=0 / bluray_compat=0 / constrained_intra=0 / bframes=3 / b_pyramid=2 / b_adapt=2 / b_bias=0 / direct=3 / weightb=1 / open_gop=0 / weightp=2 / keyint=240 / keyint_min=24 / scenecut=40 / intra_refresh=0 / rc_lookahead=50 / rc=2pass / mbtree=1 / bitrate=8399 / ratetol=1.0 / qcomp=0.60 / qpmin=0 / qpmax=69 / qpstep=4 / cplxblur=20.0 / qblur=0.5 / ip_ratio=1.40 / aq=1:1.00
Язык : English
Default : Да
Forced : Нет

Аудио #1
Идентификатор : 2
Формат : AC-3
Формат/Информация : Audio Coding 3
Расширение режима : CM (complete main)
Идентификатор кодека : A_AC3
Продолжительность : 2 ч. 6 м.
Вид битрейта : Постоянный
Битрейт : 448 Кбит/сек
Каналы : 6 каналов
Расположение каналов : Front: L C R, Side: L R, LFE
Частота : 48,0 КГц
Битовая глубина : 16 бит
Метод сжатия : С потерями
Размер потока : 405 Мбайт (4%)
Заголовок : [DUB] AC3, 6 ch, 448 Кбит/с
Язык : Russian
Default : Да
Forced : Нет

Аудио #2
Идентификатор : 3
Формат : DTS
Формат/Информация : Digital Theater Systems
Идентификатор кодека : A_DTS
Продолжительность : 2 ч. 6 м.
Вид битрейта : Постоянный
Битрейт : 1510 Кбит/сек
Каналы : 6 каналов
Расположение каналов : Front: L C R, Side: L R, LFE
Частота : 48,0 КГц
Битовая глубина : 24 бит
Метод сжатия : С потерями
Размер потока : 1,33 Гбайт (15%)
Заголовок : [Original] DTS, 6 ch, 1510 Кбит/с
Язык : English
Default : Нет
Forced : Нет

Текст
Идентификатор : 4
Формат : UTF-8
Идентификатор кодека : S_TEXT/UTF8
Идентификатор кодека/Информация : UTF-8 Plain Text
Язык : English
Default : Нет
Forced : Нет

Меню
00:00:00.000 : en:00:00:00.000
00:09:35.533 : en:00:09:35.533
00:17:20.665 : en:00:17:20.665
00:23:32.911 : en:00:23:32.911
00:30:34.541 : en:00:30:34.541
00:38:26.262 : en:00:38:26.262
00:47:36.270 : en:00:47:36.270
00:55:37.543 : en:00:55:37.543
01:03:43.695 : en:01:03:43.695
01:12:46.862 : en:01:12:46.862
01:19:59.169 : en:01:19:59.169
01:27:10.100 : en:01:27:10.100
01:33:03.495 : en:01:33:03.495
01:42:41.280 : en:01:42:41.280
01:53:47.779 : en:01:53:47.779
01:59:58.441 : en:01:59:58.441
pb.wtf



Скачать Хранитель времени через торрент http://piratpic.net/images/71127459329386963874.jpg Скачать фильм Хранитель времени через торрент бесплантно в хорошем качестве Описание: Действие разворачивается во Франции начала 30-х. Главный герой, мальчик-сирота Хьюго, проживающий в стенах парижского вокзала со ... 10 10 1
Info! Золотая раздача, скачанное не засчитывается.
Торрент: Зарегистрирован [2012-02-22 14:28] · скачан: 219 раз
Статус: √ проверено
Размер: 9.14 GB
Как cкачать? Как скачать Хранитель времени через торрент | qTorrent

% Раздел Тема Автор DL S | L
Фильмы 2011 [ 746 MB ] Хранитель времени / Hugo [2011 HDRip-AVC] DUB |лицензия| + |Оригинал| Mr. Freeman Скачать
1 | 0
Фильмы 2011 [ 2.05 GB ] Хранитель времени / Hugo [2011 HDRip лицензия] WISE Скачать
1 | 0

28-11-2019 20:33  

Отключить всю рекламу на сайте

22-02-2012 13:57 Хранитель времени Скачать торрент  

раздача будет через минут 20)pb.wtf



22-02-2012 14:05 Хранитель времени Скачать торрент  

~Relizer~
создал тему но ещё не скачал файл?? pb.wtf



22-02-2012 16:25 Хранитель времени Скачать торрент  

Shmel спасибо за то что вастановил)pb.wtf



    Дорогой пользователь! Огромная просьба, поблагодарите релизера, оцените раздачу и оставьте свои комментарий, если Вы скачали Хранитель времени через торрент бесплатно! Внесите свою лепту в развитие PiratBit!
    Комментировать посты могут только пользователи прошедшие не сложную регистрацию
    Показать сообщения:    

    Хранитель времени через торрент
    Скачать бесплатно Хранитель времени
    Хранитель времени скачать торрент
    Хранитель времени смотреть онлайн
    Cкачать фильм Хранитель времени бесплатно
    Хранитель времени скачать торрент в хорошем качестве
    Хранитель времени смотреть онлайн бесплатно в хорошем качестве


    Вы не можете начинать темы
    Вы не можете отвечать на сообщения
    Вы не можете редактировать свои сообщения
    Вы не можете удалять свои сообщения
    Вы не можете голосовать в опросах
    Вы не можете прикреплять файлы к сообщениям
    Вы можете скачивать файлы