1 сезон

1 сезон

iTunes

1

КиноПоиск HD

Кинопоиск HD

iTunes

13

1 сезон

RePack

30

Новинка

ВАЖНО

ИГРА 18+

pack

RePack

MK11
pack

Легкие деньги

RePack

jed

RePack

fifa19

RePack

RDR2

RePack

NEED FOR SPEED™ PAYBACK

4 сезон

9 сезон

Бесстыжие 9 сезон

Все сериалы

все сериалы на PB.wtf

RePack

FAR CRY 5
  
Magnet ссылка

Кокаин / Blow (Тед Демме) [2001 г., драма, криминал, биография, BDRip-AVC] pb.wtf

Кокаин через торрент pb.wtf

Размер: 2.18 GB | Добавлен: 9 лет 1 мес. назад | Торрент скачан:149 раз
Скачать  

23-02-2012 07:44 Кокаин Скачать торрент  

Кокаин / Blow

Год выпуска: 2001
Страна: США
Жанр: драма, криминал, биография
Продолжительность: 02:03:26
Перевод: Многоголосый закадровый + Дубляж + Многоголосый закадровый (Украинский) + Оригинал

Режиссер: Тед Демме
Сценарий: Дэвид МакКенна, Ник Кассаветис, Брюс Портер
Премьера в мире: 29 марта 2001



В ролях: Джонни Депп, Пенелопа Крус, Франка Потенте, Рэйчел Гриффитс, Пол Рубенс, Жорди Молья, Клифф Кёртис, Мигель Сандоваль, Этан Сапли, Рэй Лиотта ...

Описание: Джордж Джанг, обыкновенный парень из пригорода, решил осуществить американскую мечту своим способом — стать первым американцем, импортирующим кокаин в больших объемах. Он создал себе рынок сбыта, подсадив на кокаин самых знаменитых людей Америки. Вскоре он уже купался в деньгах и роскоши, о которых многие только мечтают. Ему удавалось обводить вокруг пальца не только ФБР, но и страшных колумбийских наркодельцов. Однако настоящий кайф он получал от опасности и риска, нуждаясь в адреналине больше чем в наркотиках.

Качество: BDRip-AVC
Формат: MKV
Видео кодек: H.26x
Аудио кодек: AC3
Видео: 1016x432 (2,35:1), 23.976 fps, 1532 kbps, 0.146 bit/pixel
Аудио#1: 48 kHz, AC3 5.1, 320.00 kbps (Многоголосый)
Аудио#2: 48 kHz, AC3 2.0, 192.00 kbps (Дубляж с VHS)
Аудио#3: 48 kHz, AC3 5.1, 320.00 kbps (Многоголосый - Украинский)
Аудио#4: 48 kHz, AC3 2.0, 160.00 kbps (Оригинал - Английский)
Субтитры: вшитые отключаемые (SRT), Русский, Английский

&
Общее
Уникальный идентификатор : 232212510409283344063371719840472376246 (0xAEB280B2A44B4FCDA1CA04C632EE23B6)
Полное имя : D:\Blow.2001.BDRip-AVC.PT.mkv
Формат : Matroska
Версия формата : Version 2
Размер файла : 2,18 Гбайт
Продолжительность : 2 ч. 3 м.
Общий поток : 2524 Кбит/сек
Название фильма : Кокаин / Blow (2001) BDRip-AVC rip by rulya74
Дата кодирования : UTC 2012-02-23 06:31:55
Программа кодирования : mkvmerge v5.2.1 ('A Far Off Place') built on Jan 2 2012 23:21:10
Библиотека кодирования : libebml v1.2.3 + libmatroska v1.3.0

Видео
Идентификатор : 1
Формат : AVC
Формат/Информация : Advanced Video Codec
Профиль формата : High@L4.1
Параметр CABAC формата : Да
Параметр ReFrames формата : 10 кадров
Идентификатор кодека : V_MPEG4/ISO/AVC
Продолжительность : 2 ч. 3 м.
Битрейт : 1532 Кбит/сек
Ширина : 1016 пикселей
Высота : 432 пикселя
Соотношение сторон : 2,35:1
Частота кадров : 23,976 кадра/сек
Цветовое пространство : YUV
Субдискретизация насыщенности : 4:2:0
Битовая глубина : 8 бит
Тип развёртки : Прогрессивная
Бит/(Пиксели*Кадры) : 0.146
Размер потока : 1,28 Гбайт (59%)
Библиотека кодирования : x264 core 120 r2164 da19765
Настройки программы : cabac=1 / ref=10 / deblock=1:-2:-1 / analyse=0x3:0x113 / me=umh / subme=9 / psy=1 / psy_rd=1.00:0.00 / mixed_ref=1 / me_range=32 / chroma_me=1 / trellis=2 / 8x8dct=1 / cqm=0 / deadzone=21,11 / fast_pskip=1 / chroma_qp_offset=-2 / threads=4 / sliced_threads=0 / nr=0 / decimate=1 / interlaced=0 / bluray_compat=0 / constrained_intra=0 / bframes=9 / b_pyramid=2 / b_adapt=1 / b_bias=0 / direct=3 / weightb=1 / open_gop=0 / weightp=2 / keyint=240 / keyint_min=22 / scenecut=40 / intra_refresh=0 / rc=2pass / mbtree=0 / bitrate=1532 / ratetol=1.0 / qcomp=0.60 / qpmin=10 / qpmax=51 / qpstep=4 / cplxblur=20.0 / qblur=0.5 / ip_ratio=1.40 / pb_ratio=1.30 / aq=1:1.00
Default : Да
Forced : Нет

Аудио #1
Идентификатор : 2
Формат : AC-3
Формат/Информация : Audio Coding 3
Расширение режима : CM (complete main)
Идентификатор кодека : A_AC3
Продолжительность : 2 ч. 3 м.
Вид битрейта : Постоянный
Битрейт : 320 Кбит/сек
Каналы : 6 каналов
Расположение каналов : Front: L C R, Side: L R, LFE
Частота : 48,0 КГц
Битовая глубина : 16 бит
Метод сжатия : С потерями
Размер потока : 283 Мбайт (13%)
Заголовок : Многоголосый закадровый
Язык : Russian
Default : Да
Forced : Нет

Аудио #2
Идентификатор : 3
Формат : AC-3
Формат/Информация : Audio Coding 3
Расширение режима : CM (complete main)
Идентификатор кодека : A_AC3
Продолжительность : 2 ч. 3 м.
Вид битрейта : Постоянный
Битрейт : 192 Кбит/сек
Каналы : 2 канала
Расположение каналов : Front: L R
Частота : 48,0 КГц
Битовая глубина : 16 бит
Метод сжатия : С потерями
Размер потока : 170 Мбайт (8%)
Заголовок : Дубляж с VHS
Язык : Russian
Default : Нет
Forced : Нет

Аудио #3
Идентификатор : 4
Формат : AC-3
Формат/Информация : Audio Coding 3
Расширение режима : CM (complete main)
Идентификатор кодека : A_AC3
Продолжительность : 2 ч. 3 м.
Вид битрейта : Постоянный
Битрейт : 320 Кбит/сек
Каналы : 6 каналов
Расположение каналов : Front: L C R, Side: L R, LFE
Частота : 48,0 КГц
Битовая глубина : 16 бит
Метод сжатия : С потерями
Размер потока : 283 Мбайт (13%)
Заголовок : Многоголосый закадровый (НТН)
Язык : Ukrainian
Default : Нет
Forced : Нет

Аудио #4
Идентификатор : 5
Формат : AC-3
Формат/Информация : Audio Coding 3
Расширение режима : CM (complete main)
Идентификатор кодека : A_AC3
Продолжительность : 2 ч. 3 м.
Вид битрейта : Постоянный
Битрейт : 160 Кбит/сек
Каналы : 2 канала
Расположение каналов : Front: L R
Частота : 48,0 КГц
Битовая глубина : 16 бит
Метод сжатия : С потерями
Размер потока : 141 Мбайт (6%)
Заголовок : Оригинал
Язык : English
Default : Нет
Forced : Нет

Текст #1
Идентификатор : 6
Формат : UTF-8
Идентификатор кодека : S_TEXT/UTF8
Идентификатор кодека/Информация : UTF-8 Plain Text
Язык : Russian
Default : Нет
Forced : Нет

Текст #2
Идентификатор : 7
Формат : UTF-8
Идентификатор кодека : S_TEXT/UTF8
Идентификатор кодека/Информация : UTF-8 Plain Text
Язык : English
Default : Нет
Forced : Нет

Меню
00:00:00.000 : :1. Main Titles
00:03:03.516 : :2. My Name is George Jung
00:07:00.002 : :3. Summer 1968
00:13:09.121 : :4. Coast to Coast
00:18:51.630 : :5. Donde Esta Pot?
00:25:08.131 : :6. Family Dinner
00:27:45.497 : :7. Chicago 1972
00:32:00.835 : :8. A Visit Home
00:36:56.047 : :9. Diego
00:44:00.804 : :10. Colombia 1976
00:50:19.349 : :11. A Favor
00:55:34.998 : :12. Pablo
01:03:57.625 : :13. Mirtha
01:09:02.847 : :14. A Family Visit
01:11:42.089 : :15. Diego's Move
01:17:08.290 : :16. No More Brothers
01:20:55.183 : :17. Kristina
01:26:08.788 : :18. Happy Birthday
01:28:58.958 : :19. On the Run Again
01:32:59.532 : :20. Florida 1987
01:38:02.793 : :21. George's Heart
01:42:31.854 : :22. One Last Score
01:49:22.722 : :23. A Message Home
01:53:48.822 : :24. A Visitor
01:57:59.072 : :25. End Credits
pb.wtf



Скачать Кокаин через торрент http://i29.fastpic.ru/big/2012/0223/c0/c07702f7095d3e0bcd8ca72fa54507c0.png Скачать фильм Кокаин через торрент бесплантно в хорошем качестве Описание: Джордж Джанг, обыкновенный парень из пригорода, решил осуществить американскую мечту своим способом — стать первым американцем, ... 10 10 5
Info! Золотая раздача, скачанное не засчитывается.
Торрент: Зарегистрирован [2012-02-23 07:44] · скачан: 149 раз
Статус: √ проверено
Размер: 2.18 GB
Как cкачать? Как скачать Кокаин через торрент | UTorrent

% Раздел Тема Автор DL S | L
Фильмы [HD 720p, 1080p] (Хороший звук DUB, MVO) [ 12.21 GB ] Кокаин / Blow [2001 биография BDRip-HEVC 1080p ] DUB +2xMVO bober100 Скачать
1 | 0
Фильмы 2001-2005 [ 2.92 GB ] Кокаин / Blow [2001 биография HDRip Wegas Digital ] Wegas Digital Скачать
1 | 0
Порно фильмы с сюжетом [ 698 MB ] Кокаин / Blow [2012 Feature. DVDRip] Pir@tya2010 Скачать
1 | 0
Порно фильмы HD [ 4.14 GB ] Кокаин / Blow [2011 Feature WEB-DL] Shaidi Скачать
1 | 0
Фильмы [HD 720p, 1080p] (Хороший звук DUB, MVO) [ 8.73 GB ] Кокаин / Blow [2001 BDRip] Flint3 Скачать
1 | 0
Фильмы [HD 720p, 1080p] (Хороший звук DUB, MVO) [ 3.1 GB ] Кокаин / Blow [2001 биография BDRip - AVC] MVO + Original + DUB + Subs IceDevil71 Скачать
1 | 0
Фильмы 2001-2005 [ 1.45 GB ] Кокаин / Blow [2001 HDRip] nitles666 Скачать
1 | 0

28-11-2019 20:33  

Отключить всю рекламу на сайте

23-02-2012 08:39 Кокаин Скачать торрент  

кто еще не смотрел,то качаем,смотрим и наслаждаем и делаем выводы!
фильм ахринительный!з.ы. тока давайте без желтых карточек))
с прасникам ебн)))pb.wtf



23-02-2012 10:06 Кокаин Скачать торрент  

Внимание!!! Людям в ремиссии (нарко) фильм не рекомендуются к просмотру!!!!!!!pb.wtf



    Дорогой пользователь! Огромная просьба, поблагодарите релизера, оцените раздачу и оставьте свои комментарий, если Вы скачали Кокаин через торрент бесплатно! Внесите свою лепту в развитие PiratBit!
    Комментировать посты могут только пользователи прошедшие не сложную регистрацию
    Показать сообщения:    

    Кокаин через торрент
    Скачать бесплатно Кокаин
    Кокаин скачать торрент
    Кокаин смотреть онлайн
    Cкачать фильм Кокаин бесплатно
    Кокаин скачать торрент в хорошем качестве
    Кокаин смотреть онлайн бесплатно в хорошем качестве


    Вы не можете начинать темы
    Вы не можете отвечать на сообщения
    Вы не можете редактировать свои сообщения
    Вы не можете удалять свои сообщения
    Вы не можете голосовать в опросах
    Вы не можете прикреплять файлы к сообщениям
    Вы можете скачивать файлы