2 сезон

iTunes

1 сезон

1

iTunes

iTunes

iTunes

1 сезон

RePack

30

ИГРА 18+

pack

ВАЖНО

!!Акция!!

Alien_RageХит недели

RePack

MK11
pack

Забери бонус

RePack

jed

!!Акция!!

Alien_Rage

RePack

fifa19

RePack

Assassins Creed: Odyssey

RePack

NEED FOR SPEED™ PAYBACK

4 сезон

9 сезон

Бесстыжие 9 сезон

Все сериалы

все сериалы на PB.wtf

RePack

FAR CRY 5
  

Я плюю на ваши могилы / I Spit on Your Grave (Стивен Р. Монро / Steven R. Monroe) [2010 г., США, Триллер, Криминал, BDRip (720p)] / Полная версия pb.wtf

Я плюю на ваши могилы через торрент pb.wtf

Размер: 4.66 GB | Добавлен: 8 лет 8 мес. назад | Торрент скачан:62 раза
Скачать  

23-02-2012 13:01 Я плюю на ваши могилы Скачать торрент  

Я плюю на ваши могилы / "I Spit on Your Grave"
Год выпуска: 2010 г.
Страна: США
Жанр:Tриллер, Криминал, УжасыПродолжительность: 01:48:15
Перевод: Профессиональный (полное дублирование)
Режиссер: Стивен Р. Монро / Steven R. Monroe

В ролях: Дэниел Фрэнзиси, Сара Батлер, Чэд Линдберг, Трейси Уолтер, Эндрю Ховард, Джефф Брэнсон, Родни Истман, Саксон Шарбино, Молли Миллиган

Описание: Молодая писательница Дженнифер снимает домик в глухом лесу, чтобы в уединении написать очередной роман. Но издатель не дождется нового бестселлера Четверо местных отморозков жестоко насилуют девушку и обрекают ее на мучительную смерть. Но спустя некоторое время Дженнифер вновь появляется в заброшенном городке. Она сумела выжить и теперь ее единственная цель - месть. И месть эта будет столь ужасной, что бывшие насильники проклянут тот день, когда встретили ее впервые...

Качество: BDRip-720p
Формат: MKV
Видео кодек: H.264
Аудио кодек: AC3
Видео: AVC at 5143 Кбит/сек: 1280 x 544 (2.353) at 23.976 fps
Аудио: Russian: AC3, 384 Кбит/сек: 6 канала(ов), 48,0 КГц
Аудио: English: AC3, 640 Кбит/сек: 6 канала(ов), 48,0 КГц
Субтитры: русские, английские
Размер: 4.66 GB

Релиз группы:
Общее
Уникальный идентификатор : 182386422814289223757809004759810855569 (0x893658E99EEF4304ACE06EABCB345291)
Полное имя :Я плюю на ваши могилы / I Spit on Your Grave (Стивен Р. Монро / Steven R. Monroe) [2010 г., США, Триллер, Криминал, BDRip (720p)] | Полная версия
Формат : Matroska
Размер файла : 4,66 Гбайт
Продолжительность : 1 ч. 48 м.
Общий поток : 6168 Кбит/сек
Дата кодирования : UTC 2011-02-16 15:10:36
Программа кодирования : mkvmerge v3.4.0 ('Rapunzel') built on May 15 2010 09:38:20
Библиотека кодирования : libebml v0.8.0 + libmatroska v0.9.0

Видео
Идентификатор : 1
Формат : AVC
Формат/Информация : Advanced Video Codec
Профиль формата : High@L4.1
Параметр CABAC формата : Да
Параметр ReFrames формата : 5 кадры
Параметры GOP формата : M=4, N=32
Идентификатор кодека : V_MPEG4/ISO/AVC
Продолжительность : 1 ч. 48 м.
Битрейт : 5143 Кбит/сек
Ширина : 1280 пикс.
Высота : 544 пикс.
Соотношение сторон : 2,35:1
Частота кадров : 23,976 кадр/сек
Цветовое пространство : YUV
Подвыборка цветности : 4:2:0
Битовая глубина : 8 бит
Тип развёртки : Прогрессивная
Бит/(Пиксели*Кадры) : 0.308
Размер потока : 3,80 Гбайт (81%)
Библиотека кодирования : x264 core 112 r1867 22bfd31
Настройки программы : cabac=1 / ref=5 / deblock=1:0:0 / analyse=0x3:0x133 / me=umh / subme=8 / psy=1 / psy_rd=1.00:0.00 / mixed_ref=1 / me_range=16 / chroma_me=1 / trellis=1 / 8x8dct=1 / cqm=0 / deadzone=21,11 / fast_pskip=1 / chroma_qp_offset=-2 / threads=24 / sliced_threads=0 / nr=0 / decimate=1 / interlaced=0 / constrained_intra=0 / bframes=3 / b_pyramid=2 / b_adapt=1 / b_bias=0 / direct=1 / weightb=1 / open_gop=0 / weightp=1 / keyint=250 / keyint_min=23 / scenecut=40 / intra_refresh=0 / rc=2pass / mbtree=0 / bitrate=5143 / ratetol=1.0 / qcomp=0.60 / qpmin=0 / qpmax=51 / qpstep=4 / cplxblur=20.0 / qblur=0.5 / ip_ratio=1.40 / pb_ratio=1.30 / aq=1:1.00
Язык : English

Аудио #1
Идентификатор : 2
Формат : AC-3
Формат/Информация : Audio Coding 3
Расширение режима : CM (complete main)
Идентификатор кодека : A_AC3
Продолжительность : 1 ч. 48 м.
Вид битрейта : Постоянный
Битрейт : 384 Кбит/сек
Канал(ы) : 6 канала(ов)
Расположение каналов : Front: L C R, Side: L R, LFE
Частота : 48,0 КГц
Битовая глубина : 16 бит
Метод сжатия : С потерями
Размер потока : 297 Мбайт (6%)
Заголовок : Russian @ DD 5.1 @ 384 kbps
Язык : Russian

Аудио #2
Идентификатор : 3
Формат : AC-3
Формат/Информация : Audio Coding 3
Расширение режима : CM (complete main)
Идентификатор кодека : A_AC3
Продолжительность : 1 ч. 48 м.
Вид битрейта : Постоянный
Битрейт : 640 Кбит/сек
Канал(ы) : 6 канала(ов)
Расположение каналов : Front: L C R, Side: L R, LFE
Частота : 48,0 КГц
Битовая глубина : 16 бит
Метод сжатия : С потерями
Размер потока : 495 Мбайт (10%)
Заголовок : English @ DD 5.1 @ 640 kbps
Язык : English

Текст #1
Идентификатор : 4
Формат : UTF-8
Идентификатор кодека : S_TEXT/UTF8
Идентификатор кодека/Информация : UTF-8 Plain Text
Заголовок : Russian
Язык : Russian

Текст #2
Идентификатор : 5
Формат : UTF-8
Идентификатор кодека : S_TEXT/UTF8
Идентификатор кодека/Информация : UTF-8 Plain Text
Заголовок : English
Язык : English


pb.wtf



Скачать Я плюю на ваши могилы через торрент http://pic.kartinco.top/images/2011/8nw2mxt213.png Скачать фильм Я плюю на ваши могилы через торрент бесплантно в хорошем качестве Описание: Молодая писательница Дженнифер снимает домик в глухом лесу, чтобы в уединении написать очередной роман. Но издатель не дождется ... 10 10 4
Info! Золотая раздача, скачанное не засчитывается.
Торрент: Зарегистрирован [2012-02-23 13:01] · скачан: 62 раз
Статус: √ проверено
Размер: 4.66 GB
Как cкачать? Как скачать Я плюю на ваши могилы через торрент | qTorrent



Последний раз редактировалось: Dassis (2015-09-25 20:15), всего редактировалось 6 раз(а)

28-11-2019 20:33  

Отключить всю рекламу на сайте

23-02-2012 16:19 Я плюю на ваши могилы Скачать торрент  

Dassis

Нужно добавить Media Info

Для изменения статуса раздачи, после исправления уведомить в со ссылкой на раздачуpb.wtf



23-02-2012 18:02 Я плюю на ваши могилы Скачать торрент  

:jest3: фильм жестокий.я дама не слабонервная ,но иногда подташнивало.слабонервным в люльку pb.wtf



23-02-2012 18:46 Я плюю на ваши могилы Скачать торрент  

фильм очень понравился,Жанр: Tриллер, Криминал, Ужасы,очень мало кто из режиссеров может передать,такие есть но их мало !pb.wtf



27-02-2012 09:34 Я плюю на ваши могилы Скачать торрент  

Жесть!pb.wtf



03-02-2018 12:04 Я плюю на ваши могилы Скачать торрент  

А мне нравится эта серия фильмовpb.wtf



    Дорогой пользователь! Огромная просьба, поблагодарите релизера, оцените раздачу и оставьте свои комментарий, если Вы скачали Я плюю на ваши могилы через торрент бесплатно! Внесите свою лепту в развитие PiratBit!
    Комментировать посты могут только пользователи прошедшие не сложную регистрацию
    Показать сообщения:    

    Я плюю на ваши могилы через торрент
    Скачать бесплатно Я плюю на ваши могилы
    Я плюю на ваши могилы скачать торрент
    Я плюю на ваши могилы смотреть онлайн
    Cкачать фильм Я плюю на ваши могилы бесплатно
    Я плюю на ваши могилы скачать торрент в хорошем качестве
    Я плюю на ваши могилы смотреть онлайн бесплатно в хорошем качестве


    Вы не можете начинать темы
    Вы не можете отвечать на сообщения
    Вы не можете редактировать свои сообщения
    Вы не можете удалять свои сообщения
    Вы не можете голосовать в опросах
    Вы не можете прикреплять файлы к сообщениям
    Вы можете скачивать файлы