Ссылка на приватное зеркало нашего сайта всего за 1$. Внимание количество ограничено!!!

2 сезон

iTunes

1 сезон

1

iTunes

iTunes

iTunes

1 сезон

RePack

30

ИГРА 18+

pack

ВАЖНО

!!Акция!!

Alien_RageХит недели

RePack

MK11
pack

Забери бонус

RePack

jed

!!Акция!!

Alien_Rage

RePack

fifa19

RePack

Assassins Creed: Odyssey

RePack

NEED FOR SPEED™ PAYBACK

4 сезон

9 сезон

Бесстыжие 9 сезон

Все сериалы

все сериалы на PB.wtf

RePack

FAR CRY 5
  

Хранитель времени / Hugo (Мартин Скорсезе) [2011, Детектив, семейный, BDRemux] pb.wtf

Хранитель времени через торрент pb.wtf

Размер: 29.36 GB | Добавлен: 8 лет 7 мес. назад | Торрент скачан:108 раз
Скачать  

23-02-2012 13:52 Хранитель времени Скачать торрент  

[font="Monotype corsiva"] Хранитель времени | Hugo
Год выпуска : 2011
Страна: США
Жанр : Детектив, семейный
Продолжительность : 02:06:21
Перевод : Дублированный
Cубтитры : Русские, английские

Режиссер : Мартин Скорсезе

В ролях : Хлоя Морец, Эмили Мортимер, Джуд Лоу, Хелен МакКрори, Кристофер Ли, Саша Барон Коэн, Бен Кингсли, Рэй Уинстоун, Ричард Гриффитс, Аса Баттерфилд

Описание : Действие разворачивается во Франции начала 30-х. Главный герой, мальчик-сирота Хьюго, проживающий в стенах парижского вокзала со своим дядей-алкоголиком, случайно находит таинственный механизм, созданный знаменитым фильммейкером Жоржем Мелье. Эта находка запускает цепную реакцию удивительных событий, которые в конечном итоге помогут Хьюго разгадать тайну его покойного отца.

Похожие раздачи : Хранитель времени

Качество : BDRemux
Формат : MKV
Видео кодек : AVC
Аудио кодек : AC-3,DTS
Видео : MPEG-4 AVC, 28.0 Мбит/с, 1920x1080, 23.976 кадр/с
Аудио#1 : AC3, 6 ch, 448 Кбит/с |Русский|
Аудио#2: DTS-HD МА, 8 ch, 4894 Кбит/с |Английский|

Код:

Общее
Уникальный идентификатор : 203864222282127174191735308936371301327 (0x995ED22EE8108CA89E2665AA13F0EBCF)
Полное имя : E:\Мои документы\Андрей\Downloads\BLU-RAY REMUXHranitel.vremeni.2011.MPEG-4-AVC.BluRay-Remux(1080p).mkv
Формат : Matroska
Размер файла : 29,4 Гбайт
Продолжительность : 2 ч. 6 м.
Общий поток : 33,3 Мбит/сек
Дата кодирования : UTC 2012-02-23 16:48:02
Программа кодирования : mkvmerge v5.3.0 ('I could have danced') built on Feb 9 2012 10:38:07
Библиотека кодирования : libebml v1.2.3 + libmatroska v1.3.0

Видео
Идентификатор : 1
Формат : AVC
Формат/Информация : Advanced Video Codec
Профиль формата : High@L4.1
Параметр CABAC формата : Да
Параметр ReFrames формата : 4 кадры
Идентификатор кодека : V_MPEG4/ISO/AVC
Продолжительность : 2 ч. 6 м.
Вид битрейта : Переменный
Битрейт : 30,6 Мбит/сек
Максимальный битрейт : 35,1 Мбит/сек
Ширина : 1920 пикс.
Высота : 1080 пикс.
Соотношение сторон : 16:9
Частота кадров : 23,976 кадр/сек
Цветовое пространство : YUV
Подвыборка цветности : 4:2:0
Битовая глубина : 8 бит
Тип развёртки : Прогрессивная
Бит/(Пиксели*Кадры) : 0.615
Размер потока : 27,0 Гбайт (92%)
Язык : English

Аудио #1
Идентификатор : 2
Формат : AC-3
Формат/Информация : Audio Coding 3
Расширение режима : CM (complete main)
Идентификатор кодека : A_AC3
Продолжительность : 2 ч. 6 м.
Вид битрейта : Постоянный
Битрейт : 448 Кбит/сек
Канал(ы) : 6 канала(ов)
Расположение каналов : Front: L C R, Side: L R, LFE
Частота : 48,0 КГц
Битовая глубина : 16 бит
Метод сжатия : С потерями
Размер потока : 405 Мбайт (1%)
Язык : Russian

Аудио #2
Идентификатор : 3
Формат : DTS
Формат/Информация : Digital Theater Systems
Профиль формата : MA / Core
Идентификатор кодека : A_DTS
Продолжительность : 2 ч. 6 м.
Вид битрейта : Переменный
Битрейт : 1606 Кбит/сек / 1510 Кбит/сек
Канал(ы) : 8 канала(ов) / 6 канала(ов)
Расположение каналов : Front: L C R, Side: L R, Back: L R, LFE / Front: L C R, Side: L R, LFE
Частота : 48,0 КГц
Битовая глубина : 24 бит
Метод сжатия : Без потерь / Lossy
Язык : English

Текст #1
Идентификатор : 4
Формат : UTF-8
Идентификатор кодека : S_TEXT/UTF8
Идентификатор кодека/Информация : UTF-8 Plain Text
Язык : Russian

Текст #2
Идентификатор : 5
Формат : UTF-8
Идентификатор кодека : S_TEXT/UTF8
Идентификатор кодека/Информация : UTF-8 Plain Text
Язык : English

Меню
00:00:00.000 : en:
00:09:35.532 : en:
00:17:20.664 : en:
00:23:32.911 : en:
00:30:34.541 : en:
00:38:26.262 : en:
00:47:36.270 : en:
00:55:37.542 : en:
01:03:43.694 : en:
01:12:46.862 : en:
01:19:59.169 : en:
01:27:10.099 : en:
01:33:03.494 : en:
01:42:41.280 : en:
01:53:47.779 : en:
01:59:58.441 : en:

pb.wtf



Скачать Хранитель времени через торрент http://pic.kartinco.top/images/2011/6rc1x47kiq.png Скачать фильм Хранитель времени через торрент бесплантно в хорошем качестве Описание : Действие разворачивается во Франции начала 30-х. Главный герой, мальчик-сирота Хьюго, проживающий в стенах парижского вокзала ... 4.7 10 13
Info! Золотая раздача, скачанное не засчитывается.
Торрент: Зарегистрирован [2012-02-23 13:52] · скачан: 108 раз
Статус: √ проверено
Размер: 29.36 GB
Как cкачать? Как скачать Хранитель времени через торрент | qTorrent

% Раздел Тема Автор DL S | L
Фильмы с авторской озвучкой [ 1.46 GB ] Хранитель времени / Hugo [2011 BDRip] [AVO] killermax2013 Скачать
1 | 0
Фильмы 2011 [ 746 MB ] Хранитель времени / Hugo [2011 HDRip-AVC] DUB |лицензия| + |Оригинал| Mr. Freeman Скачать
2 | 0
Фильмы 2011 [ 2.28 GB ] Хранитель времени / Hugo [2011 HDRip-AVC] DUB + Original + Sub potroks Скачать
1 | 0
Фильмы (DVD фильмы) [ 6.61 GB ] Хранитель времени / Hugo [2011 DVD9] R5 voovaz Скачать
1 | 0
Фильмы (DVD фильмы) [ 4.37 GB ] Хранитель времени / Hugo [2011 DVD5 Пиратка] Onector07 Скачать
1 | 0
Фильмы 2011 [ 2.05 GB ] Хранитель времени / Hugo [2011 HDRip лицензия] WISE Скачать
1 | 0
3D Фильмы [ 8.99 GB ] Хранитель времени / Hugo [2011 BDRip ] marik05 Скачать
1 | 0

28-11-2019 20:33  

Отключить всю рекламу на сайте

23-02-2012 20:50 Хранитель времени Скачать торрент  

кино вам скажу на один разочек. тянут всё . действий нет почти и так 2 с лишним часа. если нечего глазеть по посмотрите. продюсер то САМ джонни депп.-О КАК!!!!pb.wtf



22-12-2012 13:13 Хранитель времени Скачать торрент  

Не досмотрел. скукотища та ещё.pb.wtf



27-12-2012 07:36 Хранитель времени Скачать торрент  

Тупой фильм. К сожалению.pb.wtf



    Дорогой пользователь! Огромная просьба, поблагодарите релизера, оцените раздачу и оставьте свои комментарий, если Вы скачали Хранитель времени через торрент бесплатно! Внесите свою лепту в развитие PiratBit!
    Комментировать посты могут только пользователи прошедшие не сложную регистрацию
    Показать сообщения:    

    Хранитель времени через торрент
    Скачать бесплатно Хранитель времени
    Хранитель времени скачать торрент
    Хранитель времени смотреть онлайн
    Cкачать фильм Хранитель времени бесплатно
    Хранитель времени скачать торрент в хорошем качестве
    Хранитель времени смотреть онлайн бесплатно в хорошем качестве


    Вы не можете начинать темы
    Вы не можете отвечать на сообщения
    Вы не можете редактировать свои сообщения
    Вы не можете удалять свои сообщения
    Вы не можете голосовать в опросах
    Вы не можете прикреплять файлы к сообщениям
    Вы можете скачивать файлы