Всегда рабочее зеркало без VPN и Proxy просто перед .vidak.icu напиши любое слово или цифру, Пример http://jmth.vidak.icu

MVO

2 сезон

2 сезон

1

1 сезон

iTunes

2 сезон

13

1 сезон

Распродажа

pack

Рекомендуем

Пиратка

30

ВАЖНО

RePack

MK11

RePack

jed

RePack

fifa19

RePack

RDR2

RePack

NEED FOR SPEED™ PAYBACK

Кинопоиск HD

6 сезон

 Острые козырьки 6 сезон

Все сериалы

все сериалы на PB.wtf

RePack

FAR CRY 5

Anonymous, нам критически не хватает 5601 руб. на оплату серверов и переферии за Апрель, помоги нам пожалуйста, вся надежда только на тебя. В благодарность мы отключим тебе всю рекламу на сайте!

×
  
Magnet ссылка

Моя безумная семья (Ренат Давлетьяров) [2011, комедия, DVD9] R5 pb.wtf

Смотреть онлайн Моя безумная семья | Скачать    Ребята, помогите собрать деньги на оплату серверов!!!

23-02-2012 20:18 Моя безумная семья Скачать торрент  

[font="Georgia"]
Моя безумная семья
Страна: Россия
Студия: Фокс Интернешнл Продакшнс СНГ, Интерфест
Жанр: комедия
Год выпуска: 2011
Мировая премьера: 5 января 2012
Российская премьера: 5 января 2012
Дата выхода DVD: 1 марта 2012
Дата выхода Blu-Ray: 1 марта 2012
Продолжительность: 01:20:27
Перевод: Оригинал [Лицензия]
Cубтитры: нет
Оригинальная аудиодорожка: русский
Режиссер: Ренат Давлетьяров
В ролях: Иван Стебунов, Аглая Шиловская, Леонид Ярмольник, Мария Шукшина, Андрей Ургант, Лариса Удовиченко, Андрей Панин, Анна Ардова, Ольга Орлова, Вячеслав Манучаров
Описание: Родителей не выбирают! Но что делать, если после знакомства с твоими домочадцами подружки уходят навсегда? А тут появляется девушка мечты и настает время знакомить ее с семьей!
Главный герой находит оригинальный выход: нанимает актеров из рекламного ролика, чтобы те сыграли его семью. Однако идеальный план выходит из-под контроля, ситуация накаляется и наш герой вынужден идти на крайние меры, чтобы не потерять любимую девушку и свою семью.

Бонусы: Фильм о фильме

Качество: DVD9 R5
Формат: DVD-Video
Видео кодек: MPEG2
Аудио кодек: AC3
Видео: PAL 16:9 (720x576(0.689)) MPEG Video, 25,000 кадр/сек, 7140 Кбит/сек
Аудио: Russian (Dolby AC3, 6 ch) 448 Кбит/сек, 48,0 КГц



Title:
Size: 5.64 Gb ( 5 918 010 KBytes ) - DVD-9
Enabled regions: 1, 2, 3, 4, 5, 6, 7, 8

VTS_01 :
Play Length: 00:01:02
Video: PAL 16:9 (720x576) VBR, Auto Letterboxed
Audio:
English (Dolby AC3, 2 ch)
Subtitles:
Russian
Not specified

VTS_02 :
Play Length: 00:00:27
Video: PAL 16:9 (720x576) VBR, Auto Letterboxed
Audio:
English (Dolby AC3, 6 ch)

VTS_03 :
Play Length:
Video: PAL 16:9 (720x576) VBR, Auto Pan&Scan, Auto Letterboxed

VTS_04 :
Play Length: 00:29:39
Video: PAL 4:3 (720x576) VBR
Audio:
Russian (Dolby AC3, 2 ch)

VTS_05 :
Play Length: 01:20:27
Video: PAL 16:9 (720x576) VBR, Auto Letterboxed
Audio:
Russian (Dolby AC3, 6 ch)

VTS_06 :
Play Length: 00:00:07
Video: PAL 16:9 (720x576) VBR, Auto Letterboxed
Subtitles:
Russian
Общее
Полное имя : G:\Новинки 2012\Moja.bezumnaja.sem'ja.2011.DVD9\VIDEO_TS\VTS_05_1.VOB
Формат : MPEG-PS
Размер файла : 1024 Мбайт
Продолжительность : 18 м.
Режим общего битрейта : Переменный
Общий поток : 7742 Кбит/сек

Видео
Идентификатор : 224 (0xE0)
Формат : MPEG Video
Версия формата : Version 2
Профиль формата : Main@Main
Параметр BVOP формата : Да
Параметр матрицы формата : По умолчанию
Продолжительность : 18 м.
Вид битрейта : Переменный
Битрейт : 7140 Кбит/сек
Максимальный битрейт : 8200 Кбит/сек
Ширина : 720 пикселей
Высота : 576 пикселей
Соотношение сторон : 16:9
Частота кадров : 25,000 кадров/сек
Стандарт вещания : PAL
Цветовое пространство : YUV
Субдискретизация насыщенности : 4:2:0
Битовая глубина : 8 бит
Тип развёртки : Чересстрочная
Порядок развёртки : Верхнее поле первое
Метод сжатия : С потерями
Бит/(Пиксели*Кадры) : 0.689
Размер потока : 944 Мбайт (92%)
Основные цвета : BT.470-2 System B, BT.470-2 System G
Характеристики трансфера : BT.470-2 System B, BT.470-2 System G
Коэффициенты матрицы : BT.470-2 System B, BT.470-2 System G

Аудио
Идентификатор : 189 (0xBD)-128 (0x80)
Формат : AC-3
Формат/Информация : Audio Coding 3
Расширение режима : CM (complete main)
Режим смешивания : DVD-Video
Продолжительность : 18 м.
Вид битрейта : Постоянный
Битрейт : 448 Кбит/сек
Каналы : 6 каналов
Расположение каналов : Front: L C R, Side: L R, LFE
Частота : 48,0 КГц
Битовая глубина : 16 бит
Метод сжатия : С потерями
Размер потока : 59,2 Мбайт (6%)










pb.wtf



Скачать
Чтобы иметь возможность скачивать с Торрент Трекера, нужно Зарегистрироваться

Как скачивать  ·  Рейтинг и ограничения

28-11-2019 20:33  

Отключить всю рекламу на сайте

    Дорогой пользователь! Огромная просьба, поблагодарите релизера, оцените раздачу и оставьте свои комментарий, если Вы скачали Моя безумная семья через торрент бесплатно!
    Комментировать посты могут только пользователи прошедшие не сложную регистрацию
    Показать сообщения:    

    Моя безумная семья через торрент
    Скачать бесплатно Моя безумная семья
    Моя безумная семья скачать торрент
    Моя безумная семья смотреть онлайн
    Cкачать фильм Моя безумная семья бесплатно
    Моя безумная семья скачать торрент в хорошем качестве
    Моя безумная семья смотреть онлайн бесплатно в хорошем качестве


    Вы не можете начинать темы
    Вы не можете отвечать на сообщения
    Вы не можете редактировать свои сообщения
    Вы не можете удалять свои сообщения
    Вы не можете голосовать в опросах
    Вы не можете прикреплять файлы к сообщениям
    Вы не можете скачивать файлы