1 сезон

3 сезон

iTunes

1

Line

MVO

iTunes

13

1 сезон

RePack

30

Deluxe

pack

Лицензия

ВАЖНО

ИГРА 18+

pack

RePack

MK11

RePack

jed

RePack

fifa19

RePack

RDR2

RePack

NEED FOR SPEED™ PAYBACK

4 сезон

9 сезон

Бесстыжие 9 сезон

Все сериалы

все сериалы на PB.wtf

RePack

FAR CRY 5

Anonymous, доброе утро, мы катастрофически не успеваем собрать деньги на оплату серверов, помогите нам пожалуйста 5,10,15р., для нас важна любая помощь . В качестве благодарности мы отключим Вам всю рекламу на сайте (укажите свой ник в строку Ваше имя)!

×
  
Magnet ссылка

Приключения Филибера / Les aventures de Philibert, capitaine puceau (Сильвен Фюзе / Sylvain Fusee) [2011, комедия, приключения, DVD5] R5 pb.wtf

Приключения Филибера через торрент pb.wtf

Размер: 3.89 GB | Добавлен: 9 лет 5 мес. назад | Торрент скачан:26 раз
Скачать  

25-02-2012 09:34 Приключения Филибера Скачать торрент  

[font="Georgia"]
Приключения Филибера / Les aventures de Philibert, capitaine puceau
Страна: Франция
Студия: Angoa-Agicoa, Canal+ [fr], Ciné Cinémas, Gaumont, M6, M6 Films, Mandarin Films, Procirep
Жанр: комедия, приключения
Год выпуска: 2011
Продолжительность: 01:42:01
Перевод: Профессиональный (многоголосый закадровый) [Лицензия]
Cубтитры: украинские
Режиссер: Сильвен Фюзе / Sylvain Fusee
В ролях: Жереми Ренье, Александр Астье, Ману Пайе, Элоди Наварр, Эрик Савен, Людовик Бертийо, Гаспар Пруст
Описание: В 1550 году молодой фермер Филибер имеет только две цели в жизни: сохранить семейную традицию выращивания артишоков и найти свою суженую, чтобы жениться на ней. Внезапно на смертном одре его отец сообщает ему, что на самом деле он сын графа, убитого двадцать лет назад таинственным дворянином с родинкой в виде розы на шее. Теперь он должен отказаться от старой жизни и отомстить за смерть своего настоящего отца.
Бонусы: Смотрите на DVD

Релиз группы:
Качество: DVD5 R5
Формат: DVD-Video
Видео кодек: MPEG2
Аудио кодек: AC3
Видео: PAL 4:3 (720x576(0.434)) MPEG Video, 25,000 кадр/сек, 4499 Кбит/сек
Аудио: Russian (Dolby AC3, 2 ch) 224 Кбит/сек, 48,0 КГц



Title:
Size: 3.89 Gb ( 4 080 188 KBytes ) - DVD-5
Enabled regions: 1, 2, 3, 4, 5, 6, 7, 8

VTS_01 :
Play Length: 01:41:45+00:00:16
Video: PAL 4:3 (704x576) VBR
Audio:
Russian (Dolby AC3, 2 ch)
Subtitles:
Ukrainian

VTS_02 :
Play Length: 00:11:36
Video: PAL 16:9 (720x576) VBR, Auto Letterboxed
Audio:
Russian (Dolby AC3, 2 ch)

Menu Video:
PAL 16:9 (720x576) VBR
Auto Letterboxed
Menu Subtitles:
Not specified
Menu English Language Unit :
Root Menu
Общее
Полное имя : G:\Новинки 2012\Prikljuchenija.Filibera.2011.DVD5\VIDEO_TS\VTS_01_1.VOB
Формат : MPEG-PS
Размер файла : 1000 Мбайт
Продолжительность : 29 м.
Режим общего битрейта : Переменный
Общий поток : 4819 Кбит/сек

Видео
Идентификатор : 224 (0xE0)
Формат : MPEG Video
Версия формата : Version 2
Профиль формата : Main@Main
Параметр BVOP формата : Да
Параметр матрицы формата : Выборочная
Параметр GOP формата : M=3, N=15
Продолжительность : 29 м.
Вид битрейта : Переменный
Битрейт : 4499 Кбит/сек
Максимальный битрейт : 5000 Кбит/сек
Ширина : 720 пикселей
Высота : 576 пикселей
Соотношение сторон : 4:3
Частота кадров : 25,000 кадров/сек
Стандарт вещания : PAL
Цветовое пространство : YUV
Субдискретизация насыщенности : 4:2:0
Битовая глубина : 8 бит
Тип развёртки : Чересстрочная
Порядок развёртки : Верхнее поле первое
Метод сжатия : С потерями
Бит/(Пиксели*Кадры) : 0.434
Размер потока : 934 Мбайт (93%)

Аудио
Идентификатор : 189 (0xBD)-128 (0x80)
Формат : AC-3
Формат/Информация : Audio Coding 3
Расширение режима : CM (complete main)
Режим смешивания : DVD-Video
Продолжительность : 29 м.
Вид битрейта : Постоянный
Битрейт : 224 Кбит/сек
Каналы : 2 канала
Расположение каналов : Front: L R
Частота : 48,0 КГц
Битовая глубина : 16 бит
Метод сжатия : С потерями
Размер потока : 46,5 Мбайт (5%)

Текст
Идентификатор : 189 (0xBD)-32 (0x20)
Формат : RLE
Формат/Информация : Run-length encoding
Режим смешивания : DVD-Video










pb.wtf



Скачать Приключения Филибера через торрент http://i4.imageban.ru/out/2012/02/25/c0247199738c1ff9b69c07e14e1bc24e.png Скачать фильм Приключения Филибера через торрент бесплантно в хорошем качестве Описание: В 1550 году молодой фермер Филибер имеет только две цели в жизни: сохранить семейную традицию выращивания артишоков и найти свою ... 4.3 10 6
Info! Золотая раздача, скачанное не засчитывается.
Торрент: Зарегистрирован [2012-02-25 09:34] · скачан: 26 раз
Статус: √ проверено
Размер: 3.89 GB
Как cкачать? Как скачать Приключения Филибера через торрент | UTorrent

28-11-2019 20:33  

Отключить всю рекламу на сайте

    Дорогой пользователь! Огромная просьба, поблагодарите релизера, оцените раздачу и оставьте свои комментарий, если Вы скачали Приключения Филибера через торрент бесплатно! Внесите свою лепту в развитие PiratBit!
    Комментировать посты могут только пользователи прошедшие не сложную регистрацию
    Показать сообщения:    

    Приключения Филибера через торрент
    Скачать бесплатно Приключения Филибера
    Приключения Филибера скачать торрент
    Приключения Филибера смотреть онлайн
    Cкачать фильм Приключения Филибера бесплатно
    Приключения Филибера скачать торрент в хорошем качестве
    Приключения Филибера смотреть онлайн бесплатно в хорошем качестве


    Вы не можете начинать темы
    Вы не можете отвечать на сообщения
    Вы не можете редактировать свои сообщения
    Вы не можете удалять свои сообщения
    Вы не можете голосовать в опросах
    Вы не можете прикреплять файлы к сообщениям
    Вы можете скачивать файлы