2 сезон

iTunes

MVO

1

2 сезон

iTunes

iTunes

1 сезон

RePack

30

Новинка

ВАЖНО

ИГРА 18+

pack

RePack

MK11
pack

Легкие деньги

RePack

jed

RePack

fifa19

RePack

RDR2

RePack

NEED FOR SPEED™ PAYBACK

4 сезон

9 сезон

Бесстыжие 9 сезон

Все сериалы

все сериалы на PB.wtf

RePack

FAR CRY 5

Anonymous, добрый день, мы не успеваем собрать деньги на оплату серверов за декабрь и январь, помогите нам пожалуйста в это трудное время. В качестве благодарности мы отключим Вам всю рекламу на сайте (укажите свой ник в строку Ваше имя)!

×
  
Magnet ссылка

Хранитель времени / Hugo (Мартин Скорсезе) [2011 г., драма, детектив, приключения, семейный, BDRip (1080p)] pb.wtf

Хранитель времени через торрент pb.wtf

Размер: 8.99 GB | Добавлен: 8 лет 10 мес. назад | Торрент скачан:575 раз
Скачать  

25-02-2012 12:24 Хранитель времени Скачать торрент  

Хранитель времени 3D / Hugo 3D

Год выпуска: 2011
Страна: США
Жанр: драма, детектив, приключения, семейный
Продолжительность: 02:06:21

Перевод: Профессиональный (дублированный)
Русские субтитры: нет
Режиссер на русском: Мартин Скорсезе
Режиссер на английском: Martin Scorsese

В ролях (дублировали):

Хьюго Габрет -Аса Баттерфилд ( Никита Сологалов)
Жорж Мельес-Бен Кингсли (Никита Прозоровский)
станц.инспектор- Саша Барон Коэн (Александр Гаврилин)
Изабелль- Хлоя Грейс Морец (Любовь Германова)
дядя Клод- Рэй Уинстон (Александр Новиков)
господин Лэбисс- Кристофер Ли (Борис Быстров)

Описание:

Действие разворачивается во Франции начала 30-х.
Главный герой, мальчик-сирота Хьюго, проживающий в стенах парижского вокзала
со своим дядей-алкоголиком, случайно находит таинственный механизм, созданный
знаменитым фильммейкером Жоржем Мелье. Эта находка запускает цепную реакцию
удивительных событий, которые в конечном итоге помогут Хьюго разгадать тайну его покойного отца.





Дополнительная информация: Украинская и французская звуковые дорожки отдельными файлами

Качество: BDrip
Контейнер: MKV
Формат 3D: Half OverUnder / Вертикальная анаморфная стереопара
Порядок ракурсов: левый ракурс первый
Видео кодек: h.264
Аудио кодек: AC3
Видео: AVC / 1920х1080p / 23,976 fps / 7.8Mbps
Аудио 1: Русский / AC3 / 48 KHz / 5.1 ch / 448 Kbps (Лицензия)
Аудио 2: Английский / AC3 / 48 KHz / 5.1 ch / 640 Kbps (оригинал)
Аудио 3: Украинский / AC3 / 48 KHz / 2.1 ch / 448 Kbps (отдельно)
Аудио 4: Французский / AC3 / 48 KHz / 5.1 ch / 640 Kbps (отдельно)
Общее
Уникальный идентификатор : 246161109701137288324208694644630290030 (0xB930E7BD43C7C90F91D962006F46FE6E)
Полное имя : E:\кино\HUGO(3D)2011.halfOU(marik)mkv\Hugo (3D).mkv
Формат : Matroska
Версия формата : Version 2
Размер файла : 8,04 Гбайт
Продолжительность : 2 ч. 6 м.
Общий поток : 9105 Кбит/сек
Название фильма : Hugo(3D)1080p.mkv
Дата кодирования : UTC 2012-02-25 10:35:52
Программа кодирования : mkvmerge v3.4.0 ('Rapunzel') сборка от May 15 2010 09:38:20
Библиотека кодирования : libebml v0.8.0 + libmatroska v0.9.0

Видео
Идентификатор : 1
Формат : AVC
Формат/Информация : Advanced Video Codec
Профиль формата : High@L4.1
Параметр CABAC формата : Да
Параметр ReFrames формата : 4 кадра
Идентификатор кодека : V_MPEG4/ISO/AVC
Продолжительность : 2 ч. 6 м.
Битрейт : 7836 Кбит/сек
Ширина : 1920 пикселей
Высота : 1080 пикселей
Соотношение сторон : 16:9
Частота кадров : 23,976 кадра/сек
Цветовое пространство : YUV
Субдискретизация насыщенности : 4:2:0
Битовая глубина : 8 бит
Тип развёртки : Прогрессивная
Бит/(Пиксели*Кадры) : 0.158
Размер потока : 6,92 Гбайт (86%)
Заголовок : Hugo.film.mkv
Библиотека кодирования : x264 core 120 r2164 da19765
Настройки программы : cabac=1 / ref=4 / deblock=1:-2:-2 / analyse=0x3:0x113 / me=umh / subme=7 / psy=1 / psy_rd=1.00:0.15 / mixed_ref=1 / me_range=16 / chroma_me=1 / trellis=2 / 8x8dct=1 / cqm=0 / deadzone=21,11 / fast_pskip=1 / chroma_qp_offset=-3 / threads=6 / sliced_threads=0 / nr=0 / decimate=1 / interlaced=0 / bluray_compat=0 / constrained_intra=0 / bframes=6 / b_pyramid=0 / b_adapt=2 / b_bias=0 / direct=3 / weightb=1 / open_gop=0 / weightp=2 / keyint=250 / keyint_min=23 / scenecut=40 / intra_refresh=0 / rc_lookahead=40 / rc=crf / mbtree=1 / crf=18.0 / qcomp=0.60 / qpmin=10 / qpmax=69 / qpstep=4 / ip_ratio=1.40 / aq=1:1.00
Default : Да
Forced : Нет

Аудио #1
Идентификатор : 2
Формат : AC-3
Формат/Информация : Audio Coding 3
Расширение режима : CM (complete main)
Идентификатор кодека : A_AC3
Продолжительность : 2 ч. 6 м.
Вид битрейта : Постоянный
Битрейт : 448 Кбит/сек
Каналы : 6 каналов
Расположение каналов : Front: L C R, Side: L R, LFE
Частота : 48,0 КГц
Битовая глубина : 16 бит
Метод сжатия : С потерями
Размер потока : 405 Мбайт (5%)
Заголовок : audio.rus
Язык : Russian
Default : Да
Forced : Нет

Аудио #2
Идентификатор : 3
Формат : AC-3
Формат/Информация : Audio Coding 3
Расширение режима : CM (complete main)
Идентификатор кодека : A_AC3
Продолжительность : 2 ч. 6 м.
Вид битрейта : Постоянный
Битрейт : 640 Кбит/сек
Каналы : 6 каналов
Расположение каналов : Front: L C R, Side: L R, LFE
Частота : 48,0 КГц
Битовая глубина : 16 бит
Метод сжатия : С потерями
Размер потока : 578 Мбайт (7%)
Заголовок : audio.eng
Язык : English
Default : Нет
Forced : Нет

Меню
00:00:00.000 : :00:00:00.000
00:09:35.533 : :00:09:35.533
00:17:20.665 : :00:17:20.665
00:23:32.911 : :00:23:32.911
00:30:34.541 : :00:30:34.541
00:38:26.262 : :00:38:26.262
00:47:36.270 : :00:47:36.270
00:55:37.543 : :00:55:37.543
01:03:43.695 : :01:03:43.695
01:12:46.862 : :01:12:46.862
01:19:59.169 : :01:19:59.169
01:27:10.100 : :01:27:10.100
01:33:03.495 : :01:33:03.495
01:42:41.280 : :01:42:41.280
01:53:47.779 : :01:53:47.779
01:59:58.441 : :01:59:58.441
"Внимание, торрент файл обновлен, скачайте новый торрент файл"pb.wtf



Скачать Хранитель времени через торрент http://i28.fastpic.ru/big/2012/0225/45/488ed2038c71416342b57f009c468345.jpg Скачать фильм Хранитель времени через торрент бесплантно в хорошем качестве Описание:Действие разворачивается во Франции начала 30-х.Главный герой, мальчик-сирота Хьюго, проживающий в стенах парижского вокзала со ... 5 10 4
Info! Золотая раздача, скачанное не засчитывается.
Торрент: Зарегистрирован [2012-02-25 15:11] · скачан: 575 раз
Статус: √ проверено
Размер: 8.99 GB
Как cкачать? Как скачать Хранитель времени через торрент | UTorrent

% Раздел Тема Автор DL S | L
Фильмы с авторской озвучкой [ 1.46 GB ] Хранитель времени / Hugo [2011 BDRip] [AVO] killermax2013 Скачать
1 | 0
Фильмы [HD 720p, 1080p] (Хороший звук DUB, MVO) [ 29.36 GB ] Хранитель времени / Hugo [2011 BDRemux] ACFIORENTINA Скачать
1 | 0
Фильмы 2011 [ 746 MB ] Хранитель времени / Hugo [2011 HDRip-AVC] DUB |лицензия| + |Оригинал| Mr. Freeman Скачать
1 | 0
Фильмы 2011 [ 2.28 GB ] Хранитель времени / Hugo [2011 HDRip-AVC] DUB + Original + Sub potroks Скачать
1 | 0
Фильмы (DVD фильмы) [ 6.61 GB ] Хранитель времени / Hugo [2011 DVD9] R5 voovaz Скачать
1 | 0
Фильмы (DVD фильмы) [ 4.37 GB ] Хранитель времени / Hugo [2011 DVD5 Пиратка] Onector07 Скачать
1 | 0
Фильмы 2011 [ 2.05 GB ] Хранитель времени / Hugo [2011 HDRip лицензия] WISE Скачать
1 | 0

28-11-2019 20:33  

Отключить всю рекламу на сайте

25-02-2012 21:34 Хранитель времени Скачать торрент  

У кого закачка стоит на месте перезалейте рип по новойpb.wtf



28-02-2012 09:25 Хранитель времени Скачать торрент  

очень спокойный семейный фильм. Видно Скорсезе снял его для своих внуков.pb.wtf



    Дорогой пользователь! Огромная просьба, поблагодарите релизера, оцените раздачу и оставьте свои комментарий, если Вы скачали Хранитель времени через торрент бесплатно! Внесите свою лепту в развитие PiratBit!
    Комментировать посты могут только пользователи прошедшие не сложную регистрацию
    Показать сообщения:    

    Хранитель времени через торрент
    Скачать бесплатно Хранитель времени
    Хранитель времени скачать торрент
    Хранитель времени смотреть онлайн
    Cкачать фильм Хранитель времени бесплатно
    Хранитель времени скачать торрент в хорошем качестве
    Хранитель времени смотреть онлайн бесплатно в хорошем качестве


    Вы не можете начинать темы
    Вы не можете отвечать на сообщения
    Вы не можете редактировать свои сообщения
    Вы не можете удалять свои сообщения
    Вы не можете голосовать в опросах
    Вы не можете прикреплять файлы к сообщениям
    Вы можете скачивать файлы