Ссылка на приватное зеркало нашего сайта всего за 1$. Внимание количество ограничено!!!

2 сезон

iTunes

1 сезон

1

iTunes

iTunes

iTunes

1 сезон

RePack

30

ИГРА 18+

pack

ВАЖНО

!!Акция!!

Alien_RageХит недели

RePack

MK11
pack

Забери бонус

RePack

jed

!!Акция!!

Alien_Rage

RePack

fifa19

RePack

Assassins Creed: Odyssey

RePack

NEED FOR SPEED™ PAYBACK

4 сезон

9 сезон

Бесстыжие 9 сезон

Все сериалы

все сериалы на PB.wtf

RePack

FAR CRY 5
  

Патриоты / Indigenes / Days of Glory (Рашид Бушареб / Rachid Bouchareb) [2006 г., боевик, драма, военный, BDRip (720p)] pb.wtf

Патриоты через торрент pb.wtf

Размер: 4.77 GB | Добавлен: 8 лет 7 мес. назад | Торрент скачан:51 раз
Скачать  

25-02-2012 19:17 Патриоты Скачать торрент  

Патриоты / Indigenes / Days of Glory

[font=serif]Год выпуска: 2006
Страна: Франция, Алжир, Бельгия, Марокко Tessalit Productions, Kiss Films, France 2 Cinéma
Жанр: боевик, драма, военный
Продолжительность: 02:03:38
Перевод: Профессиональный (многоголосый, закадровый) [Лицензия]


Режиссер: Рашид Бушареб / Rachid Bouchareb

В ролях: Жамель Деббуз, Сами Насери, Рошди Зем, Сами Буажила, Бернар Бланкан, Матье Симоне, Assaad Bouab, Бенуа Жирос, Мелани Лоран, Антуан Чаппи

Описание: 1943 год. Эти французы никогда не были во Франции, однако перед лицом войны Саид, Абделькадер, Мессауд и Яссир присоединяются к французской армии, чтобы защищать свою Родину от нацистов вместе со 130-ю тысячами других потенциальных жителей страны.
Эти герои были надолго забыты историей, но подвиг не стерся из памяти людей совсем. Их силами были одержаны победы в Италии, Провансе и Восге, а главный бой ожидал воинов в маленькой деревушке Эльзас, где четверым храбрецам пришлось в одиночку противостоять целому батальону немецких захватчиков.

Качество: BDRip (720p)
Формат: MKV
Видео кодек: Другой MPEG4
Аудио кодек: AC3
Видео: MPEG-4 AVC/x264, 1280x544 (2,35:1), 4440 kbps, 24 fps, 0.266 b/px*f
Аудио#1: Русский : 48 kHz, AC3, 3/2 (L,C,R,l,r) + LFE ch, 448 kbps
Аудио#2: Французский / оригинал: 48 kHz, AC3, 3/2 (L,C,R,l,r) + LFE ch, 640 kbps

Релиз от:
E:\Для Торннтов\Days of Glory.mkv
General
Unique ID : 198231184523243507309962938653590350558 (0x9521EFFAA818D2DBBF4868154152EADE)
Complete name : E:\Для Торннтов\Days of Glory.mkv
Format : Matroska
File size : 4.77 GiB
Duration : 2h 3mn
Overall bit rate : 5 528 Kbps
Encoded date : UTC 2012-02-24 12:52:02
Writing application : mkvmerge v5.3.0 ('I could have danced') built on Feb 9 2012 10:38:07
Writing library : libebml v1.2.3 + libmatroska v1.3.0
Video #1
ID : 1
Format : AVC
Format/Info : Advanced Video Codec
Format profile : High@L4.1
Format settings, CABAC : Yes
Format settings, ReFrames : 9 frames
Codec ID : V_MPEG4/ISO/AVC
Duration : 2h 3mn
Bit rate : 4 440 Kbps
Width : 1 280 pixels
Height : 544 pixels
Display aspect ratio : 2.35:1
Frame rate : 24.000 fps
Color space : YUV
Chroma subsampling : 4:2:0
Bit depth : 8 bits
Scan type : Progressive
Bits/(Pixel*Frame) : 0.266
Stream size : 3.74 GiB (78%)
Title : Патриоты / Indigenes / Days of Glory
Writing library : x264 core 120 r2164 da19765
Encoding settings : cabac=1 / ref=9 / deblock=1:-3:-3 / analyse=0x3:0x113 / me=umh / subme=10 / psy=1 / psy_rd=1.10:0.10 / mixed_ref=1 / me_range=32 / chroma_me=1 / trellis=2 / 8x8dct=1 / cqm=0 / deadzone=21,11 / fast_pskip=0 / chroma_qp_offset=-3 / threads=6 / sliced_threads=0 / nr=0 / decimate=0 / interlaced=0 / bluray_compat=0 / constrained_intra=0 / bframes=9 / b_pyramid=2 / b_adapt=2 / b_bias=0 / direct=3 / weightb=1 / open_gop=0 / weightp=2 / keyint=240 / keyint_min=24 / scenecut=40 / intra_refresh=0 / rc=2pass / mbtree=0 / bitrate=4440 / ratetol=1.0 / qcomp=0.70 / qpmin=0 / qpmax=69 / qpstep=4 / cplxblur=20.0 / qblur=0.5 / ip_ratio=1.40 / pb_ratio=1.30 / aq=2:0.80
Language : French
Audio #2
ID : 2
Format : AC-3
Format/Info : Audio Coding 3
Mode extension : CM (complete main)
Codec ID : A_AC3
Duration : 2h 3mn
Bit rate mode : Constant
Bit rate : 448 Kbps
Channel(s) : 6 channels
Channel positions : Front: L C R, Side: L R, LFE
Sampling rate : 48.0 KHz
Bit depth : 16 bits
Compression mode : Lossy
Stream size : 396 MiB (8%)
Title : Многоголосый закадровый (R5), AC-3 448 kbps 5.1
Language : Russian
Audio #3
ID : 3
Format : AC-3
Format/Info : Audio Coding 3
Mode extension : CM (complete main)
Codec ID : A_AC3
Duration : 2h 3mn
Bit rate mode : Constant
Bit rate : 640 Kbps
Channel(s) : 6 channels
Channel positions : Front: L C R, Side: L R, LFE
Sampling rate : 48.0 KHz
Bit depth : 16 bits
Compression mode : Lossy
Stream size : 566 MiB (12%)
Title : Французский оригинал, AC-3 640 kbps 5.1
Language : French
pb.wtf



Скачать Патриоты через торрент http://piratpic.net/images/84954944527627652574.png Скачать фильм Патриоты через торрент бесплантно в хорошем качестве Описание: 1943 год. Эти французы никогда не были во Франции, однако перед лицом войны Саид, Абделькадер, Мессауд и Яссир присоединяются к ... 4.8 10 6
Info! Золотая раздача, скачанное не засчитывается.
Торрент: Зарегистрирован [2012-02-25 19:17] · скачан: 51 раз
Статус: √ проверено
Размер: 4.77 GB
Как cкачать? Как скачать Патриоты через торрент | qTorrent



Последний раз редактировалось: ~Relizer~ (2012-02-26 06:51), всего редактировалось 1 раз

28-11-2019 20:33  

Отключить всю рекламу на сайте

25-02-2012 20:27 Патриоты Скачать торрент  

~Relizer~
Что с памятью? Где Media info?pb.wtf



26-02-2012 06:46 Патриоты Скачать торрент  

shuller та чтото забыл) шас дам(pb.wtf



    Дорогой пользователь! Огромная просьба, поблагодарите релизера, оцените раздачу и оставьте свои комментарий, если Вы скачали Патриоты через торрент бесплатно! Внесите свою лепту в развитие PiratBit!
    Комментировать посты могут только пользователи прошедшие не сложную регистрацию
    Показать сообщения:    

    Патриоты через торрент
    Скачать бесплатно Патриоты
    Патриоты скачать торрент
    Патриоты смотреть онлайн
    Cкачать фильм Патриоты бесплатно
    Патриоты скачать торрент в хорошем качестве
    Патриоты смотреть онлайн бесплатно в хорошем качестве


    Вы не можете начинать темы
    Вы не можете отвечать на сообщения
    Вы не можете редактировать свои сообщения
    Вы не можете удалять свои сообщения
    Вы не можете голосовать в опросах
    Вы не можете прикреплять файлы к сообщениям
    Вы можете скачивать файлы