1 сезон

3 сезон

iTunes

1

Line

MVO

iTunes

13

1 сезон

RePack

30

Deluxe

pack

Лицензия

ВАЖНО

ИГРА 18+

pack

RePack

MK11

RePack

jed

RePack

fifa19

RePack

RDR2

RePack

NEED FOR SPEED™ PAYBACK

4 сезон

9 сезон

Бесстыжие 9 сезон

Все сериалы

все сериалы на PB.wtf

RePack

FAR CRY 5

Anonymous, доброй ночи, мы катастрофически не успеваем собрать деньги на оплату серверов, помогите нам пожалуйста 5,10,15р., для нас важна любая помощь . В качестве благодарности мы отключим Вам всю рекламу на сайте (укажите свой ник в строку Ваше имя)!

×
  
Magnet ссылка

Ожившая невеста / Exquisite Corpse (Скотт Дэвид Расселл) [2010 г., ужасы, триллер, мелодрама, DVD5] pb.wtf

Ожившая невеста через торрент pb.wtf

Размер: 4.36 GB | Добавлен: 9 лет 5 мес. назад | Торрент скачан:173 раза
Скачать  

26-02-2012 14:13 Ожившая невеста Скачать торрент  

Ожившая невеста / Exquisite Corpse

Год выпуска: 2010
Страна: США
Жанр: ужасы, триллер, мелодрама
Продолжительность: 01:37:38
Перевод: Профессиональный (многоголосый, закадровый) [Лицензия]

Режиссер: Скотт Дэвид Расселл
Продюссер: Майкл Андерсон, Скотт Дэвид Расселл, Кристофер Супулведа
Сценарий: Скотт Дэвид Расселл

Мировой рейтинг IMDB 5.40 (31)


В ролях: Стив Сандвосс, Николь Вишус, Гильермо Диас, Тесса Томпсон, Ларри Седар, Дэвид Х. Лоуренс, Келли Фрай, Сюзанн Блок, Gabbriella Gillitlie, Шелби Бонд

Описание: Николас — один из самых талантливых студентов-неврологов в институте, стоящий к тому же на грани потрясающего открытия. Казалось бы, он должен упиваться своим успехом, но есть проблемы, которые этому мешают.Николас приглашает свою возлюбленную, Софию, на прогулку в горы — конечно, идеальная обстановка для выражения своих глубоких чувств. Момент настал: он, конечно же сильно переживая, рассказывает ей о своих чувствах, но нервничал он зря. София признается ему в ответных чувствах. Жизнь прекрасна и удивительна!Но идиллия продолжалась совсем недолго. Мечты Николаса рушатся в тот момент, когда София, решившая искупаться в озере, тонет. Но погодите, ведь есть же сыворотка, которую изобрел Николас. Может быть пора проверить, будет ли она работать на людях? Однако, для нее нужен окситоцин, вырабатываемый живым человеческим телом. Он снимает проститутку, убивает ее и получает необходимый экстракт. И знаете, сыворотка работает: София возвращается к жизни, выглядит вполне нормально, но есть какие-то отклонения... Она теряет свою человеченость... Да и результат введения сыворотки имеет лишь временный эффект: через короткое время она умирает снова.Теперь для того, чтобы София жила, Николасу приходится убивать людей еще и еще для получения необходимого окситоцина. Порочный круг длится совсем недолго: они оба впадают в безумие и ужас, выход из которого лишь один.

Качество: DVD5
Формат: DVD Video
Видео кодек: MPEG2
Аудио кодек: AC3
Видео: MPEG 2, 720x576 (16:9), 25.000 fps, 8 000 Kbps (0.518 bit/pixel)
Аудио#1: Russian AC-3, 48.0 KHz, 6 ch, 384 Kbps, CBR
Аудио#2: Russian AC-3, 48.0 KHz, 2 ch, 192 Kbps, CBR
Аудио#3: English AC-3, 48.0 KHz, 2 ch, 192 Kbps, CBR
Субтитры: Русские
скриншот  скриншот  скриншот  скриншот  
скриншот  скриншот  скриншот  скриншот  
скриншот  скриншот  скриншот  скриншот  
Общее
Полное имя : F:\Ojivwaya nevesta.2010.DVD5\VTS_02_1.VOB
Формат : MPEG-PS
Размер файла : 1024 Мбайт
Продолжительность : 22 м.
Режим общего битрейта : Переменный
Общий поток : 6264 Кбит/сек

Видео
Идентификатор : 224 (0xE0)
Формат : MPEG Video
Версия формата : Version 2
Профиль формата : Main@Main
Параметр BVOP формата : Да
Параметр матрицы формата : Выборочная
Параметр GOP формата : M=3, N=12
Продолжительность : 22 м.
Вид битрейта : Переменный
Битрейт : 5371 Кбит/сек
Максимальный битрейт : 8000 Кбит/сек
Ширина : 720 пикселей
Высота : 576 пикселей
Соотношение сторон : 16:9
Частота кадров : 25,000 кадров/сек
Стандарт вещания : PAL
Цветовое пространство : YUV
Субдискретизация насыщенности : 4:2:0
Битовая глубина : 8 бит
Тип развёртки : Чересстрочная
Порядок развёртки : Верхнее поле первое
Метод сжатия : С потерями
Бит/(Пиксели*Кадры) : 0.518
Размер потока : 878 Мбайт (86%)
Основные цвета : BT.470-2 System B, BT.470-2 System G
Характеристики трансфера : BT.470-2 System B, BT.470-2 System G
Коэффициенты матрицы : SMPTE 170M

Аудио #1
Идентификатор : 189 (0xBD)-128 (0x80)
Формат : AC-3
Формат/Информация : Audio Coding 3
Расширение режима : CM (complete main)
Режим смешивания : DVD-Video
Продолжительность : 22 м.
Вид битрейта : Постоянный
Битрейт : 384 Кбит/сек
Каналы : 6 каналов
Расположение каналов : Front: L C R, Side: L R, LFE
Частота : 48,0 КГц
Битовая глубина : 16 бит
Метод сжатия : С потерями
Размер потока : 62,8 Мбайт (6%)

Аудио #2
Идентификатор : 189 (0xBD)-129 (0x81)
Формат : AC-3
Формат/Информация : Audio Coding 3
Расширение режима : CM (complete main)
Режим смешивания : DVD-Video
Продолжительность : 22 м.
Вид битрейта : Постоянный
Битрейт : 192 Кбит/сек
Каналы : 2 канала
Расположение каналов : Front: L R
Частота : 48,0 КГц
Битовая глубина : 16 бит
Метод сжатия : С потерями
Размер потока : 31,4 Мбайт (3%)

Аудио #3
Идентификатор : 189 (0xBD)-130 (0x82)
Формат : AC-3
Формат/Информация : Audio Coding 3
Расширение режима : CM (complete main)
Режим смешивания : DVD-Video
Продолжительность : 22 м.
Вид битрейта : Постоянный
Битрейт : 192 Кбит/сек
Каналы : 2 канала
Расположение каналов : Front: L R
Частота : 48,0 КГц
Битовая глубина : 16 бит
Метод сжатия : С потерями
Размер потока : 31,4 Мбайт (3%)

Текст
Идентификатор : 189 (0xBD)-32 (0x20)
Формат : RLE
Формат/Информация : Run-length encoding
Режим смешивания : DVD-Video
Продолжительность : 22 м.
Задержка видео : 480 мс.

Меню
pb.wtf



Скачать Ожившая невеста через торрент https://pic1.kartinco.top/images/2011/i9g4yxiad3.png Скачать фильм Ожившая невеста через торрент бесплантно в хорошем качестве Описание: Николас — один из самых талантливых студентов-неврологов в институте, стоящий к тому же на грани потрясающего открытия. Казалось ... 4.7 10 11
Info! Золотая раздача, скачанное не засчитывается.
Торрент: Зарегистрирован [2012-02-26 14:13] · скачан: 173 раз
Статус: √ проверено
Размер: 4.36 GB
Как cкачать? Как скачать Ожившая невеста через торрент | UTorrent

% Раздел Тема Автор DL S | L
Фильмы 2010 [ 1.47 GB ] Ожившая невеста / Exquisite Corpse [2010 DVDRip] Naxty Скачать
1 | 0

28-11-2019 20:33  

Отключить всю рекламу на сайте

26-02-2012 15:39 Ожившая невеста Скачать торрент  

толковое описание фильма =) и смотреть не надоpb.wtf



26-02-2012 15:41 Ожившая невеста Скачать торрент  

kreazot писал(а):

толковое описание фильма =) и смотреть не надо

за труд вам спасибо конечно же :good2:pb.wtf



26-02-2012 20:15 Ожившая невеста Скачать торрент  

Авторы сценария долго "не ломали голову", а быстренько "перелопатили": адаптировали на современный лад "Реаниматор" - 1985 года — известный фильм ужасов, снятый по мотивам рассказа Говарда Филлипса Лавкрафта «Герберт Уэст — реаниматор». Премьера фильма состоялась 18 октября 1985 года. В США фильм собрал $2 023 414.
"Студенту-медику Дэну Кейну из университета Мискатоник (на базе стационарной клиники) дают в напарники Герберта Уэста, переведённого из Швейцарии после странного скандала, о подробностях которого новичок скромно умалчивает. Одержимый работой, с постоянно горящими поиском глазами Уэст моментально вызывает симпатии у своего коллеги, в противоположность вызывая жгучую ненависть со стороны прославленного, удачливого доктора Хилла, под началом которого им предстоит работать.

Герберт Уэст увлечённо занимается поиском лекарства, способного продлевать жизнь и лечить болезни. Результатами исследований он охотно делится с новым другом, заразив Кейна своим энтузиазмом.

Исследования Уэста заходят слишком далеко. Постоянная нехватка экспериментального материала приводит к тому, что напарники становятся частыми посетителями кладбищ, подбирая всё что посвежее; вскоре, не удовлетворившись и этим, Герберт Уэст начинает заглядываться на живых. Доктор Хилл, вечно строящий им козни, запретивший доступ в морг больницы, становится первой жертвой."pb.wtf



14-03-2012 13:01 Ожившая невеста Скачать торрент  

Шляпа!pb.wtf



    Дорогой пользователь! Огромная просьба, поблагодарите релизера, оцените раздачу и оставьте свои комментарий, если Вы скачали Ожившая невеста через торрент бесплатно! Внесите свою лепту в развитие PiratBit!
    Комментировать посты могут только пользователи прошедшие не сложную регистрацию
    Показать сообщения:    

    Ожившая невеста через торрент
    Скачать бесплатно Ожившая невеста
    Ожившая невеста скачать торрент
    Ожившая невеста смотреть онлайн
    Cкачать фильм Ожившая невеста бесплатно
    Ожившая невеста скачать торрент в хорошем качестве
    Ожившая невеста смотреть онлайн бесплатно в хорошем качестве


    Вы не можете начинать темы
    Вы не можете отвечать на сообщения
    Вы не можете редактировать свои сообщения
    Вы не можете удалять свои сообщения
    Вы не можете голосовать в опросах
    Вы не можете прикреплять файлы к сообщениям
    Вы можете скачивать файлы